Малавита / The Family (Luc Besson / Люк Бессон) [2013, США, Франция, боевик, комедия, криминал, Blu-ray Disc 1080p] Dub

Ответить на тему
 
Автор Сообщение

user ®

Стаж: 7 лет 7 месяцев

Сообщений: 20008

Пост Пост: #1 от 04-Дек-2013 01:40

[Цитировать]

Малавита
The Family
-«Некоторые называют их организованной преступной группировкой. Другие – семьей»-Страна: США, Франция
Жанр: криминал, комедия, боевик
Год выпуска: 2013
Продолжительность: 01:46:56--Перевод: Профессиональный (полное дублирование)
Cубтитры: нет

-
-Режиссер:
Люк Бессон / Luc Besson
В ролях:
Роберт Де Ниро, Мишель Пфайффер, Томми Ли Джонс, Диана Агрон, Джон Фреда, Рикардо Сорберо, Доминик Кьянезе, Дэвид Белль, Джон Д’Лео, Джино Кафарелли--Описание:Что вы знаете о своих соседях? Особенно о тех, которые заявляются среди ночи... Так, однажды на тихой улочке провинциального французского городка поселился писатель по фамилии Блейк, со своим семейством и собакой Малавитой. На этом многовековое спокойствие города закончилось. Почему сгорел местный супермаркет? Чем рискует медлительный водопроводчик? Что лежит в рюкзаке у милого парня в бежевых бриджах?
Кто бы мог представить, что на самом деле мистер Блейк - бывший глава мафии, которого власти прячут здесь от преследования. И вот в городок приезжают люди «Коза Ностры»...
--Тип релиза: Blu-ray Disc 1080p
Контейнер: BDMV
Video: MPEG-4 AVC Video / 24999 kbps / 1080i / 25 fps / 16:9 / High Profile 4.1
Audio: Russian / DTS-HD Master Audio / 5.1 / 48 kHz / 1985 kbps / 16-bit (DTS Core: 5.1 / 48 kHz / 1509 kbps / 16-bit)
Audio: Russian / Dolby Digital Audio / 5.1 / 48 kHz / 640 kbps / DN -4dB

Скриншоты


BDinfo

Disc Title: MALAVITA_BD_RUS_BLUEBIRD
Disc Size: 23 504 946 673 bytes
Protection: AACS
BD-Java: No
Extras: 50Hz Content
BDInfo: 0.5.8
Notes:
BDINFO HOME:
Cinema Squid
http://www.cinemasquid.com/blu-ray/tools/bdinfo
INCLUDES FORUMS REPORT FOR:
AVS Forum Blu-ray Audio and Video Specifications Thread
http://www.avsforum.com/avs-vb/showthread.php?t=1155731
********************
PLAYLIST: 00002.MPLS
********************
Total   Video
Title                                                           Codec   Length  Movie Size      Disc Size       Bitrate Bitrate Main Audio Track                          Secondary Audio Track
-----                                                           ------  ------- --------------  --------------  ------- ------- ------------------                        ---------------------
00002.MPLS                                                      AVC     1:46:56 23 416 086 528  23 504 946 673  29,19   25,00   DTS-HD Master 5.1 1985Kbps (48kHz/16-bit) DD AC3 5.1 640Kbps
DISC INFO:
Disc Title:     MALAVITA_BD_RUS_BLUEBIRD
Disc Size:      23 504 946 673 bytes
Protection:     AACS
BD-Java:        No
Extras:         50Hz Content
BDInfo:         0.5.8
PLAYLIST REPORT:
Name:                   00002.MPLS
Length:                 1:46:56.840 (h:m:s.ms)
Size:                   23 416 086 528 bytes
Total Bitrate:          29,19 Mbps
VIDEO:
Codec                   Bitrate             Description
-----                   -------             -----------
MPEG-4 AVC Video        24999 kbps          1080i / 25 fps / 16:9 / High Profile 4.1
AUDIO:
Codec                           Language        Bitrate         Description
-----                           --------        -------         -----------
DTS-HD Master Audio             Russian         1985 kbps       5.1 / 48 kHz / 1985 kbps / 16-bit (DTS Core: 5.1 / 48 kHz / 1509 kbps / 16-bit)
Dolby Digital Audio             Russian         640 kbps        5.1 / 48 kHz / 640 kbps / DN -4dB
FILES:
Name            Time In         Length          Size            Total Bitrate
----            -------         ------          ----            -------------
00004.M2TS      0:00:00.000     1:46:56.840     23 416 086 528  29 193
CHAPTERS:
Number          Time In         Length          Avg Video Rate  Max 1-Sec Rate  Max 1-Sec Time  Max 5-Sec Rate  Max 5-Sec Time  Max 10Sec Rate  Max 10Sec Time  Avg Frame Size  Max Frame Size  Max Frame Time
------          -------         ------          --------------  --------------  --------------  --------------  --------------  --------------  --------------  --------------  --------------  --------------
1               0:00:00.000     0:08:29.160     25 017 kbps     51 135 kbps     00:00:17.399    29 290 kbps     00:02:23.840    27 137 kbps     00:02:18.800    125 073 bytes   544 119 bytes   00:00:17.720
2               0:08:29.160     0:06:15.599     25 004 kbps     38 341 kbps     00:08:35.040    27 683 kbps     00:14:10.960    26 584 kbps     00:08:34.640    125 022 bytes   479 820 bytes   00:14:15.000
3               0:14:44.760     0:10:00.399     25 002 kbps     36 192 kbps     00:21:19.720    27 294 kbps     00:22:16.520    26 385 kbps     00:22:16.520    125 010 bytes   439 964 bytes   00:20:28.359
4               0:24:45.159     0:07:04.480     24 990 kbps     35 185 kbps     00:28:53.120    27 055 kbps     00:28:50.400    25 889 kbps     00:28:45.360    124 951 bytes   373 410 bytes   00:28:52.200
5               0:31:49.640     0:08:11.120     25 003 kbps     41 807 kbps     00:39:32.080    27 993 kbps     00:39:32.080    26 194 kbps     00:37:32.960    125 014 bytes   442 732 bytes   00:38:58.840
6               0:40:00.760     0:07:45.439     25 001 kbps     39 648 kbps     00:41:02.320    27 396 kbps     00:40:28.080    26 294 kbps     00:41:02.280    125 005 bytes   358 322 bytes   00:46:06.360
7               0:47:46.200     0:08:22.240     25 000 kbps     39 237 kbps     00:52:41.160    28 056 kbps     00:52:39.680    26 559 kbps     00:51:08.840    125 001 bytes   682 608 bytes   00:52:40.719
8               0:56:08.440     0:05:42.440     25 008 kbps     42 903 kbps     01:00:24.880    28 539 kbps     01:00:20.880    26 504 kbps     01:00:12.680    125 040 bytes   550 585 bytes   01:00:09.840
9               1:01:50.880     0:10:22.840     24 993 kbps     34 949 kbps     01:11:56.720    27 353 kbps     01:10:28.600    26 148 kbps     01:10:28.520    124 967 bytes   432 700 bytes   01:10:30.880
10              1:12:13.720     0:07:00.639     25 006 kbps     42 310 kbps     01:18:02.760    27 797 kbps     01:17:47.080    26 590 kbps     01:17:47.000    125 031 bytes   487 347 bytes   01:17:49.400
11              1:19:14.360     0:13:35.160     24 999 kbps     36 489 kbps     01:28:33.320    27 752 kbps     01:30:55.960    26 355 kbps     01:26:05.280    124 997 bytes   478 451 bytes   01:30:57.400
12              1:32:49.520     0:14:07.319     24 981 kbps     35 789 kbps     01:37:44.360    27 477 kbps     01:34:31.120    26 261 kbps     01:37:03.880    124 911 bytes   371 036 bytes   01:35:27.120
STREAM DIAGNOSTICS:
File            PID             Type            Codec           Language                Seconds                 Bitrate                 Bytes           Packets
----            ---             ----            -----           --------                --------------          --------------          -------------   -----
00004.M2TS      4113 (0x1011)   0x1B            AVC                                     6416,680                25 000                  20 051 824 421  109 071 805
00004.M2TS      4352 (0x1100)   0x86            DTS-HD MA       rus (Russian)           6416,680                1 985                   1 591 800 464   9 664 087
00004.M2TS      4353 (0x1101)   0x81            AC3             rus (Russian)           6416,680                640                     513 349 120     3 007 905
QUICK SUMMARY:
Disc Title: MALAVITA_BD_RUS_BLUEBIRD
Disc Size: 23 504 946 673 bytes
Protection: AACS
BD-Java: No
Playlist: 00002.MPLS
Size: 23 416 086 528 bytes
Length: 1:46:56.840
Total Bitrate: 29,19 Mbps
Video: MPEG-4 AVC Video / 24999 kbps / 1080i / 25 fps / 16:9 / High Profile 4.1
Audio: Russian / DTS-HD Master Audio / 5.1 / 48 kHz / 1985 kbps / 16-bit (DTS Core: 5.1 / 48 kHz / 1509 kbps / 16-bit)
Audio: Russian / Dolby Digital Audio / 5.1 / 48 kHz / 640 kbps / DN -4dB
********************
PLAYLIST: 00000.MPLS
********************
Total   Video
Title                                                           Codec   Length  Movie Size      Disc Size       Bitrate Bitrate Main Audio Track                          Secondary Audio Track
-----                                                           ------  ------- --------------  --------------  ------- ------- ------------------                        ---------------------
00000.MPLS                                                      AVC     0:00:28 28 102 656      23 504 946 673  7,85    7,29    DD AC3 2.0 256Kbps
DISC INFO:
Disc Title:     MALAVITA_BD_RUS_BLUEBIRD
Disc Size:      23 504 946 673 bytes
Protection:     AACS
BD-Java:        No
Extras:         50Hz Content
BDInfo:         0.5.8
PLAYLIST REPORT:
Name:                   00000.MPLS
Length:                 0:00:28.653 (h:m:s.ms)
Size:                   28 102 656 bytes
Total Bitrate:          7,85 Mbps
VIDEO:
Codec                   Bitrate             Description
-----                   -------             -----------
MPEG-4 AVC Video        7288 kbps           1080p / 23,976 fps / 16:9 / High Profile 4.1
AUDIO:
Codec                           Language        Bitrate         Description
-----                           --------        -------         -----------
Dolby Digital Audio             Russian         256 kbps        2.0 / 48 kHz / 256 kbps / DN -4dB
FILES:
Name            Time In         Length          Size            Total Bitrate
----            -------         ------          ----            -------------
00006.M2TS      0:00:00.000     0:00:04.963     626 688         1 010
00000.M2TS      0:00:04.963     0:00:07.006     1 603 584       1 831
00001.M2TS      0:00:11.970     0:00:16.683     25 872 384      12 406
CHAPTERS:
Number          Time In         Length          Avg Video Rate  Max 1-Sec Rate  Max 1-Sec Time  Max 5-Sec Rate  Max 5-Sec Time  Max 10Sec Rate  Max 10Sec Time  Avg Frame Size  Max Frame Size  Max Frame Time
------          -------         ------          --------------  --------------  --------------  --------------  --------------  --------------  --------------  --------------  --------------  --------------
1               0:00:00.000     0:00:28.653     7 288 kbps      21 534 kbps     00:00:19.102    13 638 kbps     00:00:12.220    13 383 kbps     00:00:12.137    37 996 bytes    321 699 bytes   00:00:19.477
STREAM DIAGNOSTICS:
File            PID             Type            Codec           Language                Seconds                 Bitrate                 Bytes           Packets
----            ---             ----            -----           --------                --------------          --------------          -------------   -----
00006.M2TS      4113 (0x1011)   0x1B            AVC                                     4,880                   915                     558 211         3 083
00000.M2TS      4113 (0x1011)   0x1B            AVC                                     6,882                   1 720                   1 479 975       8 105
00001.M2TS      4113 (0x1011)   0x1B            AVC                                     16,600                  11 598                  24 065 355      131 020
00001.M2TS      4352 (0x1100)   0x81            AC3             rus (Russian)           16,600                  258                     534 528         3 132
QUICK SUMMARY:
Disc Title: MALAVITA_BD_RUS_BLUEBIRD
Disc Size: 23 504 946 673 bytes
Protection: AACS
BD-Java: No
Playlist: 00000.MPLS
Size: 28 102 656 bytes
Length: 0:00:28.653
Total Bitrate: 7,85 Mbps
Video: MPEG-4 AVC Video / 7288 kbps / 1080p / 23,976 fps / 16:9 / High Profile 4.1
Audio: Russian / Dolby Digital Audio / 2.0 / 48 kHz / 256 kbps / DN -4dB
Скачать

Скачать торрент!

Как скачивать? · Что такое торрент? · Рейтинг и ограничения

Сайт не распространяет и не хранит электронные версии произведений, а лишь предоставляет доступ к создаваемому пользователями каталогу ссылок на торрент-файлы, которые содержат только списки хеш-сумм

[Профиль] [ЛС]
Показать сообщения:    
Ответить на тему

Текущее время: Сегодня 08:23

Часовой пояс: GMT + 4



Вы не можете начинать темы
Вы не можете отвечать на сообщения
Вы не можете редактировать свои сообщения
Вы не можете удалять свои сообщения
Вы не можете голосовать в опросах
Вы не можете прикреплять файлы к сообщениям
Вы не можете скачивать файлы