Горько! (Жора Крыжовников) [2013, комедия, приключения, DVDRip]

Ответить на тему
 
Автор Сообщение

user ®

Стаж: 7 лет 7 месяцев

Сообщений: 20008

Пост Пост: #1 от 04-Дек-2013 01:40

[Цитировать]

Жанр: комедия, приключения
Год выпуска: 2013
Продолжительность: 01:35:56
Режиссёр: Жора Крыжовников
Сценарий: Алексей Казаков, Николай Куликов, Жора Крыжовников, ...
Продюсер: Илья Бурец, Дмитрий Нелидов, Сергей Светлаков, ...
Оператор: Дмитрий Грибанов
Художник: Елена Травкина, Варя Авдюшко, Николай Растимешин
Монтаж: Александр Верхоляк
В ролях: Сергей Светлаков (Светлаков), Юлия Александрова (Наташа), Егор Корешков (Рома), Ян Цапник (отчим Наташи), Елена Валюшкина (мама Наташи), Василий Кортуков (папа Ромы), Юлия Стадник (мама Ромы), Данила Якушев (Семен, начальник Наташи), Александр Паль (хипарь), Валентина Мазунина (Ксюха), Сергей Габриэлян мл. (Дима), Сергей Лавыгин (мордоворот 1 (Толян))
Описание: Прогрессивные и талантливые Наташа и Рома мечтают о европейской свадьбе на берегу моря... но у Наташиного отчима заготовлен другой сценарий. Грубый чиновник городской администрации рассматривает торжество как трамплин для собственной карьеры и стремится устроить все «как надо». Молодых ждет незабываемый вечер в ресторане «Золотой» с полным набором занудных обрядов. Не в силах бороться, ребята решают провести свадьбу своей мечты в секрете от консервативных родственников. Но по нелепой случайности оба торжества сливаются воедино.
Сэмпл: http://multi-up.com/926071
КиноПоиск.RU: 6,7/10
IMDb: 6,8/10
Премьера (мир): 25 октября 2013
Премьера (РФ): 24 октября 2013 «Bazelevs Distribution»
Качество видео: DVDRip
Формат видео: AVI
Видео: XviD, 720x400 (16:9), 1579 kbps, 29,970 fps, 0,183 bpp
Аудио: AC3 / 5.1 / 48 kHz / 448 kbps / 16 bit
-

MediaInfo

General
Complete name : D:ТорентыGorko.2013.O.DVDRip.1400MB..avi
Format : AVI
Format/Info : Audio Video Interleave
File size : 1.37 GiB
Duration : 1h 35mn
Overall bit rate : 2 040 Kbps
Movie name : Gorko.2013.O.DVDRip.1400MB.
Genre : Comedy/Adventure
Writing application : VirtualDubMod 1.5.10.2 (build 2540/release)
Original source form/Name : Movie
Video
ID : 0
Format : MPEG-4 Visual
Format profile : Advanced Simple@L5
Format settings, BVOP : 2
Format settings, QPel : No
Format settings, GMC : No warppoints
Format settings, Matrix : Custom
Codec ID : XVID
Codec ID/Hint : XviD
Duration : 1h 35mn
Bit rate : 1 580 Kbps
Width : 720 pixels
Height : 400 pixels
Display aspect ratio : 16:9
Frame rate : 29.970 fps
Color space : YUV
Chroma subsampling : 4:2:0
Bit depth : 8 bits
Scan type : Progressive
Compression mode : Lossy
Bits/(Pixel*Frame) : 0.183
Stream size : 1.06 GiB (77%)
Writing library : XviD 1.2.1 (UTC 2008-12-04)
Audio
ID : 1
Format : AC-3
Format/Info : Audio Coding 3
Mode extension : CM (complete main)
Codec ID : 2000
Duration : 1h 35mn
Bit rate mode : Constant
Bit rate : 448 Kbps
Channel(s) : 6 channels
Channel positions : Front: L C R, Side: L R, LFE
Sampling rate : 48.0 KHz
Bit depth : 16 bits
Compression mode : Lossy
Stream size : 307 MiB (22%)
Alignment : Split accross interleaves
Interleave, duration : 33 ms (1.00 video frame)
Interleave, preload duration : 500 ms
-

Скриншот с названием фильма

Скриншоты

-
Скачать

Скачать торрент!

Как скачивать? · Что такое торрент? · Рейтинг и ограничения

Сайт не распространяет и не хранит электронные версии произведений, а лишь предоставляет доступ к создаваемому пользователями каталогу ссылок на торрент-файлы, которые содержат только списки хеш-сумм

[Профиль] [ЛС]
Показать сообщения:    
Ответить на тему

Текущее время: Сегодня 14:09

Часовой пояс: GMT + 4



Вы не можете начинать темы
Вы не можете отвечать на сообщения
Вы не можете редактировать свои сообщения
Вы не можете удалять свои сообщения
Вы не можете голосовать в опросах
Вы не можете прикреплять файлы к сообщениям
Вы не можете скачивать файлы