Обливион / Oblivion (Джозеф Косински / Joseph Kosinski) [2013, США, Фантастика, Боевик, Триллер, Приключения, Мелодрама, BDRip-AVC] Dub (CEE) + AVO (Ю.Сербин) + Original (English) + Subs (Rus, Eng)

Ответить на тему
 
Автор Сообщение

user ®

Стаж: 7 лет 7 месяцев

Сообщений: 20008

Пост Пост: #1 от 04-Дек-2013 01:40

[Цитировать]

Обливион / Oblivion«Земля - это память, за которую стоит бороться»- Страна: США
Жанр: Фантастика, Боевик, Триллер, Приключения, Мелодрама
Год выпуска: 2013
Продолжительность: 02:04:42-Перевод #1: Профессиональный (полное дублирование, CEE)
Оригинальная аудиодорожка: Английский
Cубтитры: Русские (полные, форсированные), Английские (полные, SDH) (*srt)-Отдельно:
Перевод #3: Авторский (одноголосый закадровый, Юрий Сербин)
Перевод у Сербина выкуплен в рамках сервиса "Озвучивание". Спонсоры: HDClub, а так же пользователи ресурсов e180, за что им огромная благодарность.-Режиссер: Джозеф Косински / Joseph Kosinski-В ролях: Том Круз, Ольга Куриленко, Морган Фриман, Андреа Райзборо, Николай Костер-Вальдау, Мелисса Лео, Зои Белл, Эбигейл Лоу, Изабель Лоу, Дэвид Мэдисон и др.-Описание:Земля, пережившая войну с инопланетными захватчиками, опустела; остатки человечества готовятся покинуть непригодную для жизни планету. Главный герой — техник по обслуживанию дронов — находит разбившийся корабль NASA, команда которого погибает у него на глазах. Ему удаётся спасти лишь одну женщину — и вскоре он понимает, что это перевернёт его жизнь.-Автор: AngelOfTrue-Качество видео: BDRip-AVC | Oblivion (2013) Blu-ray CEE 1080p AVC DTS 5.1
Формат видео: MKV-Видео: 1046x438p (2,40:1), 23,976 fps, x264 ~1600 kbps avg, 0.146 bit/pixel
Аудио #1: AC3 Dolby Digital / 48 KHz / 448 kbps / 3/2 (L,C,R,l,r) + LFE ch| Dub (CEE)
Аудио #2: AC3 Dolby Digital / 48 KHz / 448 kbps / 3/2 (L,C,R,l,r) + LFE ch| Original (English)
Размер: 2.18 GB (1/2 DVD) - без отдельных аудиодорог!-Отдельно:
Аудио #3: AC3 Dolby Digital / 48 KHz / 448 kbps / 3/2 (L,C,R,l,r) + LFE ch| AVO (Юрий Сербин)-

-

x264 log

avs [info]: 1046x438p 1:1 @ 2997/125 fps (cfr)
x264 [warning]: --psnr used with psy on: results will be invalid!
x264 [warning]: --tune psnr should be used if attempting to benchmark psnr!
x264 [info]: using SAR=1/1
x264 [info]: using cpu capabilities: MMX2 SSE2Fast SSSE3 SSE4.2 AVX AVX2 FMA3 LZCNT BMI1 BMI2
x264 [info]: profile High, level 3.2
x264 [info]: frame I:1559 Avg QP:15.37 size: 63436 PSNR Mean Y:47.80 U:50.71 V:50.29 Avg:48.45 Global:47.85
x264 [info]: frame P:37550 Avg QP:18.77 size: 17590 PSNR Mean Y:46.18 U:50.47 V:49.68 Avg:47.00 Global:46.20
x264 [info]: frame B:140286 Avg QP:20.13 size: 5256 PSNR Mean Y:45.88 U:50.27 V:49.43 Avg:46.66 Global:45.79
x264 [info]: consecutive B-frames: 2.9% 2.1% 6.8% 14.8% 15.8% 39.0% 6.7% 2.7% 2.9% 2.6% 1.8% 2.0%
x264 [info]: mb I I16..4: 6.4% 73.7% 19.9%
x264 [info]: mb P I16..4: 1.3% 8.3% 1.4% P16..4: 32.2% 36.0% 12.4% 2.1% 0.3% skip: 6.1%
x264 [info]: mb B I16..4: 0.2% 0.8% 0.1% B16..8: 35.7% 19.3% 2.6% direct: 4.0% skip:37.3% L0:44.4% L1:45.2% BI:10.3%
x264 [info]: 8x8 transform intra:74.8% inter:61.8%
x264 [info]: direct mvs spatial:98.2% temporal:1.8%
x264 [info]: coded y,uvDC,uvAC intra: 82.4% 73.2% 43.4% inter: 18.0% 14.1% 4.6%
x264 [info]: i16 v,h,dc,p: 22% 12% 6% 60%
x264 [info]: i8 v,h,dc,ddl,ddr,vr,hd,vl,hu: 11% 9% 5% 10% 14% 13% 14% 11% 14%
x264 [info]: i4 v,h,dc,ddl,ddr,vr,hd,vl,hu: 13% 10% 4% 9% 15% 13% 14% 10% 13%
x264 [info]: i8c dc,h,v,p: 33% 32% 18% 17%
x264 [info]: Weighted P-Frames: Y:8.1% UV:4.5%
x264 [info]: ref P L0: 50.2% 8.3% 16.2% 7.6% 5.5% 4.1% 3.3% 1.9% 1.5% 1.2% 0.2% 0.0%
x264 [info]: ref B L0: 69.4% 14.4% 6.8% 3.4% 2.3% 1.7% 1.3% 0.5% 0.2%
x264 [info]: ref B L1: 91.1% 8.9%
x264 [info]: SSIM Mean Y:0.9832262 (17.754db)
x264 [info]: PSNR Mean Y:45.960 U:50.315 V:49.492 Avg:46.750 Global:45.891 kb/s:1600.22
x264 [total]: encoded 179395 frames, 9.66 fps, 1600.23 kb/s

-

MediaInfo

Формат : Matroska
Версия формата : Version 4 / Version 2
Размер файла : 2,18 Гбайт
Продолжительность : 2 ч. 4 м.
Общий поток : 2498 Кбит/сек
Дата кодирования : UTC 2013-12-03 11:34:02
Программа кодирования : mkvmerge v6.1.0 ('Old Devil') built on Mar 4 2013 09:10:42
Библиотека кодирования : libebml v1.3.0 + libmatroska v1.4.0
Видео
Идентификатор : 1
Формат : AVC
Формат/Информация : Advanced Video Codec
Профиль формата : High@L3.2
Параметр CABAC формата : Да
Параметр ReFrames формата : 10 кадров
Идентификатор кодека : V_MPEG4/ISO/AVC
Продолжительность : 2 ч. 4 м.
Битрейт : 1600 Кбит/сек
Ширина : 1046 пикселей
Высота : 438 пикселей
Соотношение сторон : 2,40:1
Режим частоты кадров : Постоянный
Частота кадров : 23,976 кадра/сек
Цветовое пространство : YUV
Субдискретизация насыщенности : 4:2:0
Битовая глубина : 8 бит
Тип развёртки : Прогрессивная
Бит/(Пиксели*Кадры) : 0.146
Размер потока : 1,35 Гбайт (62%)
Заголовок : Oblivion.2013.DUAL.BDRip-AVC.AC3.-AngelOfTrue
Библиотека кодирования : x264 core 130 r2273 b3065e6
Настройки программы : cabac=1 / ref=10 / deblock=1:-3:-2 / analyse=0x3:0x133 / me=umh / subme=11 / psy=1 / psy_rd=1.00:0.00 / mixed_ref=1 / me_range=32 / chroma_me=1 / trellis=2 / 8x8dct=1 / cqm=0 / deadzone=21,11 / fast_pskip=0 / chroma_qp_offset=-2 / threads=6 / lookahead_threads=1 / sliced_threads=0 / nr=0 / decimate=0 / interlaced=0 / bluray_compat=0 / constrained_intra=0 / bframes=11 / b_pyramid=2 / b_adapt=2 / b_bias=0 / direct=3 / weightb=1 / open_gop=0 / weightp=2 / keyint=240 / keyint_min=23 / scenecut=40 / intra_refresh=0 / rc_lookahead=60 / rc=2pass / mbtree=0 / bitrate=1600 / ratetol=1.0 / qcomp=0.60 / qpmin=0 / qpmax=69 / qpstep=4 / cplxblur=20.0 / qblur=0.5 / vbv_maxrate=20000 / vbv_bufsize=20000 / nal_hrd=none / ip_ratio=1.35 / pb_ratio=1.25 / aq=2:1.00
Язык : Russian
Default : Да
Forced : Нет
Основные цвета : BT.709
Характеристики трансфера : BT.709
Аудио #1
Идентификатор : 2
Формат : AC-3
Формат/Информация : Audio Coding 3
Расширение режима : CM (complete main)
Параметр Endianness формата : Big
Идентификатор кодека : A_AC3
Продолжительность : 2 ч. 4 м.
Вид битрейта : Постоянный
Битрейт : 448 Кбит/сек
Каналы : 6 каналов
Расположение каналов : Front: L C R, Side: L R, LFE
Частота : 48,0 КГц
Битовая глубина : 16 бит
Метод сжатия : С потерями
Размер потока : 400 Мбайт (18%)
Заголовок : Dub (CEE)
Язык : Russian
Default : Да
Forced : Нет
Аудио #2
Идентификатор : 3
Формат : AC-3
Формат/Информация : Audio Coding 3
Расширение режима : CM (complete main)
Параметр Endianness формата : Big
Идентификатор кодека : A_AC3
Продолжительность : 2 ч. 4 м.
Вид битрейта : Постоянный
Битрейт : 448 Кбит/сек
Каналы : 6 каналов
Расположение каналов : Front: L C R, Side: L R, LFE
Частота : 48,0 КГц
Битовая глубина : 16 бит
Метод сжатия : С потерями
Размер потока : 400 Мбайт (18%)
Заголовок : Original (English)
Язык : English
Default : Нет
Forced : Нет
Текст #1
Идентификатор : 4
Формат : UTF-8
Идентификатор кодека : S_TEXT/UTF8
Идентификатор кодека/Информация : UTF-8 Plain Text
Заголовок : Russian (for)
Язык : Russian
Default : Да
Forced : Да
Текст #2
Идентификатор : 5
Формат : UTF-8
Идентификатор кодека : S_TEXT/UTF8
Идентификатор кодека/Информация : UTF-8 Plain Text
Заголовок : Russian (full BD Cee)
Язык : Russian
Default : Нет
Forced : Нет
Текст #3
Идентификатор : 6
Формат : UTF-8
Идентификатор кодека : S_TEXT/UTF8
Идентификатор кодека/Информация : UTF-8 Plain Text
Заголовок : English (full)
Язык : English
Default : Нет
Forced : Нет
Текст #4
Идентификатор : 7
Формат : UTF-8
Идентификатор кодека : S_TEXT/UTF8
Идентификатор кодека/Информация : UTF-8 Plain Text
Заголовок : English (full SDH)
Язык : English
Default : Нет
Forced : Нет

-

Скриншоты



-Дополнительная информация: -Приятного вам просмотра!
Скачать

Скачать торрент!

Как скачивать? · Что такое торрент? · Рейтинг и ограничения

Сайт не распространяет и не хранит электронные версии произведений, а лишь предоставляет доступ к создаваемому пользователями каталогу ссылок на торрент-файлы, которые содержат только списки хеш-сумм

[Профиль] [ЛС]
Показать сообщения:    
Ответить на тему

Текущее время: Сегодня 05:10

Часовой пояс: GMT + 4



Вы не можете начинать темы
Вы не можете отвечать на сообщения
Вы не можете редактировать свои сообщения
Вы не можете удалять свои сообщения
Вы не можете голосовать в опросах
Вы не можете прикреплять файлы к сообщениям
Вы не можете скачивать файлы