Влюбиться до смерти / The Necessary Death of Charlie Countryman (Фредрик Бонд / Fredrik Bond) [2013, Румыния, США, боевик, драма, мелодрама, комедия, WEB-DLRip] VO (den904)

Ответить на тему
 
Автор Сообщение

user ®

Стаж: 7 лет 7 месяцев

Сообщений: 20008

Пост Пост: #1 от 04-Дек-2013 01:40

[Цитировать]

Влюбиться до смерти / The Necessary Death of Charlie Countryman
Страна: Румыния, США
Жанр: боевик, драма, мелодрама, комедия
Год выпуска: 2013
Продолжительность: 01:43:34
Перевод: Одноголосый закадровый den904, перевод Nitro
Cубтитры: нет
Режиссер: Фредрик Бонд / Fredrik Bond
В ролях: Шайа ЛаБаф, Эван Рэйчел Вуд, Мадс Миккельсен, Тиль Швайгер, Руперт Гринт, Джеймс Бакли, Ион Карамитру, Винсент Д’Онофрио, Мелисса Лео, Джон Хёрт
Описание: Избитый и израненный Чарли Кантримен подвешен вниз головой в центре Бухареста. Еще секунда — и в его сердце вонзится пуля, и жизнь молодого американского туриста оборвется. А ведь еще пару недель назад ничто не предвещало такого финала. Работа Чарли была скучной, но безопасной, а в личной жизни его лучшими друзьями были галлюциногенные вещества. И вдруг грянул гром — в наркотическом видении ему явилась покойная мама...
Берлинский кинофестиваль, 2013 год
Номинации: Золотой Медведь


Сэмпл: http://multi-up.com/929178
Качество видео: WEB-DLRip
Формат видео: AVI
Видео: XviD,720x400, 23.976 fps, 1620 Kbps
Аудио: AC-3, 48.0 KHz, 6 ch, 384 Kbps

MediaInfo

бщее
Полное имя : D:\The.Necessary.Death.Of.Charlie.Countryman_2013.HDRip.avi
Формат : AVI
Формат/Информация : Audio Video Interleave
Размер файла : 1,46 Гбайт
Продолжительность : 1 ч. 43 м.
Общий поток : 2014 Кбит/сек
Программа кодирования : VirtualDubMod 1.5.10.3 | www.virtualdub-fr.org || (build 2550/release)
Библиотека кодирования : VirtualDubMod build 2550/release
Видео
Идентификатор : 0
Формат : MPEG-4 Visual
Профиль формата : Advanced Simple@L5
Параметр BVOP формата : 2
Параметр QPel формата : Нет
Параметр GMC формата : Без точки перехода
Параметр матрицы формата : Выборочная
Идентификатор кодека : XVID
Идентификатор кодека/Подсказка : XviD
Продолжительность : 1 ч. 43 м.
Битрейт : 1620 Кбит/сек
Ширина : 720 пикселей
Высота : 400 пикселей
Соотношение сторон : 16:9
Частота кадров : 23,976 кадра/сек
Цветовое пространство : YUV
Субдискретизация насыщенности : 4:2:0
Битовая глубина : 8 бит
Тип развёртки : Прогрессивная
Метод сжатия : С потерями
Бит/(Пиксели*Кадры) : 0.235
Размер потока : 1,17 Гбайт (80%)
Библиотека кодирования : XviD 1.2.1 (UTC 2008-12-04)
Аудио
Идентификатор : 1
Формат : AC-3
Формат/Информация : Audio Coding 3
Идентификатор кодека : 2000
Продолжительность : 1 ч. 43 м.
Вид битрейта : Постоянный
Битрейт : 384 Кбит/сек
Каналы : 6 каналов
Частота : 48,0 КГц
Метод сжатия : С потерями
Размер потока : 285 Мбайт (19%)
Выравнивание : Разделение по промежуткам
Продолжительность промежутка : 42 мс. (1,00 видеокадр)
Время предзагрузки промежутка : 500 мс.

Скриншот c названием фильма

Скриншоты

Скачать

Скачать торрент!

Как скачивать? · Что такое торрент? · Рейтинг и ограничения

Сайт не распространяет и не хранит электронные версии произведений, а лишь предоставляет доступ к создаваемому пользователями каталогу ссылок на торрент-файлы, которые содержат только списки хеш-сумм

[Профиль] [ЛС]
Показать сообщения:    
Ответить на тему

Текущее время: Сегодня 10:51

Часовой пояс: GMT + 4



Вы не можете начинать темы
Вы не можете отвечать на сообщения
Вы не можете редактировать свои сообщения
Вы не можете удалять свои сообщения
Вы не можете голосовать в опросах
Вы не можете прикреплять файлы к сообщениям
Вы не можете скачивать файлы