Стукач / Snitch (Рик Роман Во / Ric Roman Waugh) [2013, США, ОАЭ, триллер, драма, криминал, BDRip] [US-Transfer] Dub BD

Ответить на тему
 
Автор Сообщение

user ®

Стаж: 7 лет 7 месяцев

Сообщений: 20008

Пост Пост: #1 от 03-Дек-2013 17:40

[Цитировать]

Стукач / Snitch
«Как далеко ты можешь зайти, чтобы спасти своего сына?»
- Страна: США, ОАЭ / Summit Entertainment, Exclusive Media Group, Participant Media
Жанр: боевик, триллер, драма, криминал
Год выпуска: 2013
Продолжительность: 01:52:18
Перевод: Профессиональный (дублированный) лицензия BD
Cубтитры: нет
Режиссер: Рик Роман Во / Ric Roman Waugh
В ролях: Дуэйн Джонсон, Барри Пеппер, Джон Бернтал, Сьюзен Сарандон, Майкл К. Уильямс, Рафи Гаврон, Мелина Канакаредес, Надин Веласкес, Бенджамин Брэтт, Лела Лорен.
Описание: Ради спасения сына, которому грозит срок за продажу наркотиков, отец идет на сделку с полицией. Он должен внедриться в самое сердце наркомафии.-Рейтинг
imdb.com: 6.50 (39 836)
kinopoisk.ru: 6.934 (14 919)
MPAA: - детям до 13 лет просмотр не желателен-Сэмпл: http://multi-up.com/929056-Качество видео: BDRip
Формат видео: AVI
Видео: XviD build 65, 720x304 (2.37:1), 23.976 fps, ~1471 kbps avg, 0.28 bit/pixel
Аудио: 48 kHz, AC3 Dolby Digital, 3/2 (L,C,R,l,r) + LFE ch, ~384 kbps avg (Dub)
-

MediaInfo

General
Complete name : D\Snitch.2013.Dub.US-Transfer.BDRip.1,46Gb.XviD.AC3.avi
Format : AVI
Format/Info : Audio Video Interleave
File size : 1.46 GiB
Duration : 1h 52mn
Overall bit rate : 1 864 Kbps
Writing application : VirtualDubModRus 1.5.10.2 (build 2542/release)
Writing library : VirtualDubMod build 2542/release
Video
ID : 0
Format : MPEG-4 Visual
Format profile : Advanced Simple@L5
Format settings, BVOP : 1
Format settings, QPel : No
Format settings, GMC : No warppoints
Format settings, Matrix : Custom
Codec ID : XVID
Codec ID/Hint : XviD
Duration : 1h 52mn
Bit rate : 1 471 Kbps
Width : 720 pixels
Height : 304 pixels
Display aspect ratio : 2.35:1
Frame rate : 23.976 fps
Color space : YUV
Chroma subsampling : 4:2:0
Bit depth : 8 bits
Scan type : Progressive
Compression mode : Lossy
Bits/(Pixel*Frame) : 0.280
Stream size : 1.15 GiB (79%)
Writing library : XviD 65
Audio
ID : 1
Format : AC-3
Format/Info : Audio Coding 3
Mode extension : CM (complete main)
Format settings, Endianness : Big
Codec ID : 2000
Duration : 1h 52mn
Bit rate mode : Constant
Bit rate : 384 Kbps
Channel(s) : 6 channels
Channel positions : Front: L C R, Side: L R, LFE
Sampling rate : 48.0 KHz
Bit depth : 16 bits
Compression mode : Lossy
Stream size : 308 MiB (21%)
Alignment : Split accross interleaves
Interleave, duration : 42 ms (1.00 video frame)
Interleave, preload duration : 500 ms
Title : Dub

Скриншоты

Скачать

Скачать торрент!

Как скачивать? · Что такое торрент? · Рейтинг и ограничения

Сайт не распространяет и не хранит электронные версии произведений, а лишь предоставляет доступ к создаваемому пользователями каталогу ссылок на торрент-файлы, которые содержат только списки хеш-сумм

[Профиль] [ЛС]
Показать сообщения:    
Ответить на тему

Текущее время: Сегодня 03:52

Часовой пояс: GMT + 4



Вы не можете начинать темы
Вы не можете отвечать на сообщения
Вы не можете редактировать свои сообщения
Вы не можете удалять свои сообщения
Вы не можете голосовать в опросах
Вы не можете прикреплять файлы к сообщениям
Вы не можете скачивать файлы