Свободное падение / Freier fall / Free fall (Штефан Лакант / Stephan Lacant) [2013, Германия, драма, гей-тема, DVDRip-AVC] VO (Kirill Ivanov) + Original (Ger) +Sub (Rus)

Ответить на тему
 
Автор Сообщение

user ®

Стаж: 7 лет 7 месяцев

Сообщений: 20008

Пост Пост: #1 от 03-Дек-2013 14:30

[Цитировать]

Свободное падение / Freier fall / Free fall
Страна: Германия
Жанр: Драма
Год выпуска: 2013
Продолжительность: 01:36:58
Перевод: Одноголосый закадровый (Kirill Ivanov)
Субтитры: Русские, SRT (мои)
Режиссер: Штефан Лакант / Stephan Lacant
В ролях: Ханно Коффлер, Макс Римельт, Аттила Борлан, Катарина Шюттлер, Стефани Шёнфельд, Оливер Брёкер, Луис Лампрехт, Марен Кройман и др.
Описание: Кай, Беттина и Марк становятся частями любовного треугольника,
когда Марк влюбляется в своего коллегу Кая, в то время как его жена носит под сердцем их ребенка.

Качество видео: DVDRip-AVC (Источник DVD Disc)
Формат видео: MKV
Видео: x264; 720x552@1024х552 (1,85:1); 25 fps; ~2300 kbps
Аудио 1: AC3; 48 kHz; 5.1 (Front: L C R, Side: L R, LFE); 448 kbps | VO (Русский)
Аудио 2: AC3; 48 kHz; 5.1 (Front: L C R, Side: L R, LFE); 448 kbps | Original (Deutsch)
СЕМПЛ

MediaInfo

Общее
Полное имя : FREIER FALL (2013) AVC [K_I].mkv
Формат : Matroska
Версия формата : Version 4 / Version 2
Размер файла : 2,17 Гбайт
Продолжительность : 1 ч. 36 м.
Общий поток : 3202 Кбит/сек
Название фильма : FREIER FALL (2013) AVC [K_I]
Дата кодирования : UTC 2013-12-03 00:05:09
Программа кодирования : mkvmerge v6.5.0 ('Isn't she lovely') built on Oct 20 2013 12:50:05
Библиотека кодирования : libebml v1.3.0 + libmatroska v1.4.1
Видео
Идентификатор : 1
Формат : AVC
Формат/Информация : Advanced Video Codec
Профиль формата : High@L3.1
Параметр CABAC формата : Да
Параметр ReFrames формата : 9 кадров
Идентификатор кодека : V_MPEG4/ISO/AVC
Продолжительность : 1 ч. 36 м.
Битрейт : 2304 Кбит/сек
Ширина : 720 пикселей
Высота : 552 пикселя
Соотношение сторон : 1,85:1
Режим частоты кадров : Постоянный
Частота кадров : 25,000 кадров/сек
Цветовое пространство : YUV
Субдискретизация насыщенности : 4:2:0
Битовая глубина : 8 бит
Тип развёртки : Прогрессивная
Бит/(Пиксели*Кадры) : 0.232
Размер потока : 1,52 Гбайт (70%)
Библиотека кодирования : x264 core 138 r2358 9e941d1
Настройки программы : cabac=1 / ref=9 / deblock=1:-2:-1 / analyse=0x3:0x133 / me=umh / subme=10 / psy=1 / psy_rd=1.00:0.20 / mixed_ref=1 / me_range=24 / chroma_me=1 / trellis=2 / 8x8dct=1 / cqm=0 / deadzone=21,11 / fast_pskip=1 / chroma_qp_offset=-3 / threads=6 / lookahead_threads=1 / sliced_threads=0 / nr=0 / decimate=1 / interlaced=0 / bluray_compat=0 / constrained_intra=0 / bframes=4 / b_pyramid=2 / b_adapt=2 / b_bias=0 / direct=3 / weightb=1 / open_gop=0 / weightp=2 / keyint=250 / keyint_min=25 / scenecut=40 / intra_refresh=0 / rc_lookahead=60 / rc=2pass / mbtree=1 / bitrate=2304 / ratetol=1.0 / qcomp=0.60 / qpmin=0 / qpmax=69 / qpstep=4 / cplxblur=20.0 / qblur=0.5 / ip_ratio=1.40 / aq=1:1.00
Default : Да
Forced : Нет
Аудио #1
Идентификатор : 2
Формат : AC-3
Формат/Информация : Audio Coding 3
Расширение режима : CM (complete main)
Параметр Endianness формата : Big
Идентификатор кодека : A_AC3
Продолжительность : 1 ч. 36 м.
Вид битрейта : Постоянный
Битрейт : 448 Кбит/сек
Каналы : 6 каналов
Расположение каналов : Front: L C R, Side: L R, LFE
Частота : 48,0 КГц
Битовая глубина : 16 бит
Метод сжатия : С потерями
Размер потока : 311 Мбайт (14%)
Язык : Russian
Default : Да
Forced : Нет
Аудио #2
Идентификатор : 3
Формат : AC-3
Формат/Информация : Audio Coding 3
Расширение режима : CM (complete main)
Параметр Endianness формата : Big
Идентификатор кодека : A_AC3
Продолжительность : 1 ч. 36 м.
Вид битрейта : Постоянный
Битрейт : 448 Кбит/сек
Каналы : 6 каналов
Расположение каналов : Front: L C R, Side: L R, LFE
Частота : 48,0 КГц
Битовая глубина : 16 бит
Метод сжатия : С потерями
Размер потока : 311 Мбайт (14%)
Язык : German
Default : Нет
Forced : Нет
Текст
Идентификатор : 4
Формат : UTF-8
Идентификатор кодека : S_TEXT/UTF8
Идентификатор кодека/Информация : UTF-8 Plain Text
Язык : Russian
Default : Нет
Forced : Нет

Пример субтитров

1
00:01:36,240 --> 00:01:37,605
Давай, давай!
2
00:01:49,360 --> 00:01:54,207
СВОБОДНОЕ ПАДЕНИЕ
3
00:02:17,000 --> 00:02:19,207
Кто рано встает, тому бог подает.
4
00:02:34,000 --> 00:02:35,923
Давайте ближе! Ближе!
5
00:02:37,960 --> 00:02:38,882
Взять его!
6
00:02:41,520 --> 00:02:42,521
Вперед!
7
00:02:50,720 --> 00:02:52,449
Что за херня?
- На сегодня всё!
8
00:02:53,000 --> 00:02:55,321
Мудила!
- Что ты сказал?
9
00:02:56,000 --> 00:02:58,446
Ты совсем больной наголову?
Это же тренировка!
10
00:02:58,640 --> 00:03:00,041
Какие-то проблемы?
11
00:03:06,200 --> 00:03:09,329
Никаких проблем.
- Вы оба в мой кабинет.
12
00:03:16,440 --> 00:03:17,562
Блядь.
13
00:03:41,120 --> 00:03:42,531
Ну что?
14
00:03:43,480 --> 00:03:44,925
Что?
15
00:03:45,520 --> 00:03:49,491
Что он тебе сказал?
- А ты как думаешь, что он сказал?
16
00:03:50,200 --> 00:03:54,125
Если я снова облажаюсь, то я могу засунуть свой экзамен,
в то место где солнце не светит.
17
00:03:54,320 --> 00:03:55,731
Вот именно.
18
00:04:00,000 --> 00:04:01,968
Брандт, такой поэтичный.
19
00:04:09,760 --> 00:04:10,921
Дай-ка прикурить.
20
00:04:16,960 --> 00:04:18,724
Извини, что так получилось.
21
00:04:28,440 --> 00:04:29,762
Ты что рехнулся?
22
00:04:37,400 --> 00:04:38,845
Нет, конечно.
23
00:04:41,400 --> 00:04:42,765
Что?
24
00:04:49,880 --> 00:04:50,802
Убойная штука.
25
00:04:52,560 --> 00:04:54,369
Убойнейшая.
26
00:05:02,240 --> 00:05:04,686
Ты что, с ума сошел?
А если нас запалят?
27
00:05:05,960 --> 00:05:08,201
Ссыкло.
- Ты назвал меня ссыклом?
28
00:05:10,320 --> 00:05:12,084
Я тебе покажу ссыкло.
29
00:05:32,080 --> 00:05:33,525
Вот черт!
30
00:05:36,200 --> 00:05:38,064
Ладно, хватит.

Скриншот с названием фильма

Скриншоты




Скачать

Скачать торрент!

Как скачивать? · Что такое торрент? · Рейтинг и ограничения

Сайт не распространяет и не хранит электронные версии произведений, а лишь предоставляет доступ к создаваемому пользователями каталогу ссылок на торрент-файлы, которые содержат только списки хеш-сумм

[Профиль] [ЛС]
Показать сообщения:    
Ответить на тему

Текущее время: Сегодня 22:33

Часовой пояс: GMT + 4



Вы не можете начинать темы
Вы не можете отвечать на сообщения
Вы не можете редактировать свои сообщения
Вы не можете удалять свои сообщения
Вы не можете голосовать в опросах
Вы не можете прикреплять файлы к сообщениям
Вы не можете скачивать файлы