Секс и Дзен 2 / Sex & Zen 2 / Yu pu tuan II: Yu nu xin jing (Мэн Кеи Чин / Man Kei Chin) [1996, Гонконг, комедия, эротика, мистика., HDRip-AVC] + Sub Rus

Ответить на тему
 
Автор Сообщение

user ®

Стаж: 11 лет

Сообщений: 15151

Пост Пост: #1 от 03-Дек-2013 11:20

[Цитировать]

Секс и Дзен 2 / Sex & Zen 2 / Yu pu tuan II: Yu nu xin jing
Страна: Гонконг.
Жанр: комедия, эротика, мистика.
Год выпуска: 1996.
Продолжительность: 01:28:34.
Перевод: cубтитры.
Cубтитры: русские.
Режиссер: Мэн Кеи Чин / Man Kei Chin.
В ролях: Лоллета Ли, Лу Чунг, Кин-Ян Ли, Шу Ци.
Описание: Молодая девушка (Лолетта Ли), которую ее отец (Цуй Кам-Конг) держит взаперти, мечтает вырваться из-под его опеки, чтобы пойти учиться. В конце концов, ей это удается, но отец отпускает ее только под двойной защитой: она должна переодеться мужчиной, а под одежду надеть сложный аналог пояса верности, представляющий собой смертельную для всех пытающихся до нее дотронуться кольчугу. Тем временем в районе объявляется Госпожа Мираж (Хсу Чи), загадочная незнакомка, высасывающая из мужчин энергию, чтобы в конце концов превратиться в демона, сочетающего в себе мужское и женское начало.
Качество видео: HDRip-AVC
Формат видео: MKV
Видео: AVC, 1 280x720, 24.000 fps, 1 444 Kbps.
Аудио 1: AC-3, 48.0 KHz, 384 Kbps, 2 канала (Мандаринский).
Аудио 2: AC-3, 48.0 KHz, 384 Kbps, 2 канала (Кантонский).
Формат субтитров: softsub (SSA/ASS)
Скачавшие торрент. Просьба перекачать файл. Были проблемы. Уже исправил.

Текст субтитров

Dialogue: 0,0:00:33.00,0:00:39.00,Default,,0,0,0,,Книги "Секс и Дзен" и "Золотая Ваза" запрещены в Китае.
Dialogue: 0,0:00:39.00,0:00:41.00,Default,,0,0,0,,Смысл "Секс и Дзен" в том,
Dialogue: 0,0:00:41.00,0:00:45.00,Default,,0,0,0,,что соблазняя чужих жен, незаметишь как соблазнят твою.
Dialogue: 0,0:00:45.00,0:00:47.00,Default,,0,0,0,,Герой книги, Мо Янг Сан, был распутником.
Dialogue: 0,0:00:47.00,0:00:49.30,Default,,0,0,0,,И даже заменил свой член членом коня.
Dialogue: 0,0:00:49.30,0:00:52.00,Default,,0,0,0,,Тем временем как его жена, став проституткой,
Dialogue: 0,0:00:52.00,0:00:54.00,Default,,0,0,0,,ублажала сотни мужчин.
Dialogue: 0,0:00:54.00,0:00:56.00,Default,,0,0,0,,Примечательно, что несмотря на это
Dialogue: 0,0:00:56.00,0:00:59.00,Default,,0,0,0,,множество мужчин идеализировало Мо Янг Сана.
Dialogue: 0,0:00:59.00,0:01:01.00,Default,,0,0,0,,Многие хотели быть неутомимыми как он.
Dialogue: 0,0:01:01.00,0:01:03.00,Default,,0,0,0,,Они хотели совращать красавиц...
Dialogue: 0,0:01:03.40,0:01:07.40,Default,,0,0,0,,СЕКС И ДЗЕН 2
Dialogue: 0,0:01:59.50,0:02:04.00,Default,,0,0,0,,Зажиточное семейство обитало в Чинмуне.
Dialogue: 0,0:02:04.00,0:02:05.50,Default,,0,0,0,,Глава этого семейства,
Dialogue: 0,0:02:05.50,0:02:07.50,Default,,0,0,0,,господин Саймун Чиен,
Dialogue: 0,0:02:07.50,0:02:09.50,Default,,0,0,0,,идеализировал Мо Янг Сана.
Dialogue: 0,0:02:09.50,0:02:12.00,Default,,0,0,0,,Он безустанно практиковался в технике Железный Член.
Dialogue: 0,0:02:12.00,0:02:14.00,Default,,0,0,0,,Каждый день, с утра пораньше,
Dialogue: 0,0:02:14.00,0:02:17.00,Default,,0,0,0,,повесив арбузы на пенис, он начинал изнурительную тренировку.
Dialogue: 0,0:02:17.00,0:02:20.00,Default,,0,0,0,,Он хотел, чтобы его член был твердым как закаленная сталь.
Dialogue: 0,0:02:25.50,0:02:27.00,Default,,0,0,0,,Скажи, я сверхчеловек?
Dialogue: 0,0:02:27.00,0:02:29.00,Default,,0,0,0,,Сверх, сверх.
Dialogue: 0,0:02:29.00,0:02:32.00,Default,,0,0,0,,И не говорите, что я злой.
Dialogue: 0,0:02:32.00,0:02:36.00,Default,,0,0,0,,Вот тебе на сегодня арбузик, держи.
Dialogue: 0,0:02:37.00,0:02:39.00,Default,,0,0,0,,ЖРИ!!!
Dialogue: 0,0:02:39.00,0:02:42.50,Default,,0,0,0,,Жру, жру... Вкусно, очень.
Dialogue: 0,0:02:44.00,0:02:47.50,Default,,0,0,0,,Он изучил стиль Стальная Мошонка.
Dialogue: 0,0:02:47.50,0:02:50.00,Default,,0,0,0,,Привязав свои гениталии к бычьим,
Dialogue: 0,0:02:50.00,0:02:52.50,Default,,0,0,0,,он состязался со скотиной в перетягивании.

MediaInfo

Полное имя : D:\Секс и Дзен 2.mkv
Формат : Matroska
Версия формата : Version 4 / Version 2
Размер файла : 1.37 GiB
Продолжительность : 1h 28mn
Общий поток : 2 214 Kbps
Дата кодирования : UTC 2013-12-02 08:28:55
Программа кодирования : mkvmerge v6.5.0 ('Isn't she lovely') built on Oct 20 2013 12:50:05
Библиотека кодирования : libebml v1.3.0 + libmatroska v1.4.1
Video
Идентификатор : 1
Формат : AVC
Формат/Информация : Advanced Video Codec
Профиль формата : High@L4.1
Параметр CABAC формата : Yes
Параметр ReFrames формата : 4 frames
Параметры GOP формата : M=4, N=48
Идентификатор кодека : V_MPEG4/ISO/AVC
Продолжительность : 1h 28mn
Битрейт : 1 444 Kbps
Ширина : 1 280 pixels
Высота : 720 pixels
Соотношение сторон : 16:9
Частота кадров : 24.000 fps
Цветовое пространство : YUV
Подвыборка цветности : 4:2:0
Битовая глубина : 8 bits
Тип развёртки : Progressive
Бит/(Пиксели*Кадры) : 0.065
Размер потока : 888 MiB (63%)
Библиотека кодирования : x264 core 114 r1924 08d04a4
Настройки программы : cabac=1 / ref=3 / deblock=1:0:0 / analyse=0x3:0x133 / me=umh / subme=7 / psy=1 / psy_rd=1.00:0.00 / mixed_ref=1 / me_range=16 / chroma_me=1 / trellis=1 / 8x8dct=1 / cqm=0 / deadzone=21,11 / fast_pskip=1 / chroma_qp_offset=-2 / threads=6 / sliced_threads=0 / nr=0 / decimate=1 / interlaced=0 / constrained_intra=0 / bframes=3 / b_pyramid=2 / b_adapt=1 / b_bias=0 / direct=1 / weightb=1 / open_gop=0 / weightp=2 / keyint=250 / keyint_min=24 / scenecut=40 / intra_refresh=0 / rc_lookahead=40 / rc=2pass / mbtree=1 / bitrate=1444 / ratetol=1.0 / qcomp=0.60 / qpmin=0 / qpmax=69 / qpstep=4 / cplxblur=20.0 / qblur=0.5 / ip_ratio=1.40 / aq=1:1.00
Audio #1
Идентификатор : 2
Формат : AC-3
Формат/Информация : Audio Coding 3
Расширение режима : CM (complete main)
Идентификатор кодека : A_AC3
Продолжительность : 1h 28mn
Вид битрейта : Constant
Битрейт : 384 Kbps
Каналы : 2 channels
Расположение каналов : Front: L R
Частота : 48.0 KHz
Битовая глубина : 16 bits
Метод сжатия : Lossy
Размер потока : 243 MiB (17%)
Заголовок : DD.2.0 384K Mandarin
Язык : Chinese
Audio #2
Идентификатор : 3
Формат : AC-3
Формат/Информация : Audio Coding 3
Расширение режима : CM (complete main)
Идентификатор кодека : A_AC3
Продолжительность : 1h 28mn
Вид битрейта : Constant
Битрейт : 384 Kbps
Каналы : 2 channels
Расположение каналов : Front: L R
Частота : 48.0 KHz
Битовая глубина : 16 bits
Метод сжатия : Lossy
Размер потока : 243 MiB (17%)
Заголовок : DD.2.0 384K cantonese
Язык : Chinese
Text
Идентификатор : 4
Формат : ASS
Идентификатор кодека : S_TEXT/ASS
Идентификатор кодека/Информация : Advanced Sub Station Alpha
Метод сжатия : Lossless

Скриншот c названием фильма

Скриншоты с субтитрами

Скриншоты

Скачать

Скачать торрент! Секс и Дзен 2 / Sex & Zen 2 / Yu pu tuan II: Yu nu xin jing (Мэн Кеи Чин / Man Kei Chin) [1996, Гонконг, комедия, эротика, мистика., HDRip-AVC] + Sub Rus

Как скачивать? · Что такое торрент? · Рейтинг и ограничения

Сайт не распространяет и не хранит электронные версии произведений, а лишь предоставляет доступ к создаваемому пользователями каталогу ссылок на торрент-файлы, которые содержат только списки хеш-сумм

[Профиль] [ЛС]
Показать сообщения:    
Ответить на тему

Текущее время: Сегодня 20:13

Часовой пояс: GMT + 4



Вы не можете начинать темы
Вы не можете отвечать на сообщения
Вы не можете редактировать свои сообщения
Вы не можете удалять свои сообщения
Вы не можете голосовать в опросах
Вы не можете прикреплять файлы к сообщениям
Вы не можете скачивать файлы