Сказки старого пианино: Джоаккино Россини. Записки Гурмана. (Оксана Черкасова) [2011, музыкальный, биографический, WEB-DLRip]

Ответить на тему
 
Автор Сообщение

user ®

Стаж: 7 лет 7 месяцев

Сообщений: 20008

Пост Пост: #1 от 03-Дек-2013 08:10

[Цитировать]

Сказки старого пианино: Джоаккино Россини. Записки Гурмана.
Страна: Республика Беларусь
Жанр: музыкальный, биографический
Продолжительность: 00:13:38.
Год выпуска: 2011
Перевод: Не требуется
Русские субтитры: нет
Режиссёр: Оксана Черкасова
Роли озвучивали: Автор сценария Ирина Марголина
Описание: Действие фильма разворачивается на кухне. Среди кастрюль, сковородок, поварешек и дуршлагов… Там, среди клубов ароматного пара, царствует великий кудесник, композитор и кулинар – Джоакино Россини. Это его творческая кухня в буквальном смысле этого слова. Ловко жонглируя ножами, нарезая трюфели и зелень, Россини распевает арии из популярных опер. Хорошо известен цикл фортепианных пьес Россини под названием «Горячие закуски». Подпевает маэстро хор веселых поварят. Они ложками лихо «отбивают» ритм, а те, что постарше, играют на тарелочках и бокалах, как на ксилофоне. Под волшебными руками Россини оживают даже овощи; они тоже поют – «Трио томато» или каватина «Салата»…
Качество: WEB-DLRip
Формат: AVI
Видео: AVI 1.0 (VFW 1.1) MEncoder SVN-r30881(20100311-gcc4.3.3) 640x360 (1.78:1) 25 fps 981 kbps
Аудио: 44.100 kHz MPEG Layer 3 2 ch 128.00 kbps avg
Субтитры: английские

Подробные технические данные

GeneralComplete name : I:\Downloads (E)\Сказки старого пианино_ Россини.aviFormat : AVIFormat/Info : Audio Video InterleaveFile size : 109 MiBDuration : 13mn 38sOverall bit rate : 1 122 KbpsWriting application : MEncoder SVN-r30881(20100311-gcc4.3.3)Writing library : MPlayer
VideoID : 0Format : AVCFormat/Info : Advanced Video CodecFormat profile : High@L3.0Format settings, CABAC : NoFormat settings, ReFrames : 1 frameCodec ID : avc1Duration : 13mn 38sBit rate : 982 KbpsNominal bit rate : 1 600 KbpsWidth : 640 pixelsHeight : 360 pixelsDisplay aspect ratio : 16:9Frame rate : 25.000 fpsColor space : YUVChroma subsampling : 4:2:0Bit depth : 8 bitsScan type : ProgressiveBits/(Pixel*Frame) : 0.171Stream size : 95.8 MiB (88%)Writing library : x264 core 80 r1378+57 6f6b50aEncoding settings : cabac=0 / ref=1 / deblock=1:0:0 / analyse=0x3:0x113 / me=hex / subme=7 / psy=1 / psy_rd=1.0:0.0 / mixed_ref=0 / me_range=16 / chroma_me=1 / trellis=0 / 8x8dct=1 / cqm=0 / deadzone=21,11 / fast_pskip=1 / chroma_qp_offset=-2 / threads=3 / sliced_threads=0 / nr=0 / decimate=1 / mbaff=0 / constrained_intra=0 / bframes=0 / wpredp=2 / keyint=250 / keyint_min=25 / scenecut=40 / rc_lookahead=40 / rc=abr / mbtree=1 / bitrate=1600 / ratetol=1.0 / qcomp=0.60 / qpmin=10 / qpmax=51 / qpstep=4 / ip_ratio=1.40 / aq=1:1.00
AudioID : 1Format : MPEG AudioFormat version : Version 1Format profile : Layer 3Mode : Joint stereoMode extension : MS StereoCodec ID : 55Codec ID/Hint : MP3Duration : 13mn 37sBit rate mode : ConstantBit rate : 128 KbpsChannel(s) : 2 channelsSampling rate : 44.1 KHzCompression mode : LossyStream size : 12.5 MiB (11%)Alignment : Aligned on interleavesInterleave, duration : 26 ms (0.65 video frame)Interleave, preload duration : 522 msWriting library : LAME3.98

Скриншоты

Скачать

Скачать торрент!

Как скачивать? · Что такое торрент? · Рейтинг и ограничения

Сайт не распространяет и не хранит электронные версии произведений, а лишь предоставляет доступ к создаваемому пользователями каталогу ссылок на торрент-файлы, которые содержат только списки хеш-сумм

[Профиль] [ЛС]
Показать сообщения:    
Ответить на тему

Текущее время: Сегодня 08:13

Часовой пояс: GMT + 4



Вы не можете начинать темы
Вы не можете отвечать на сообщения
Вы не можете редактировать свои сообщения
Вы не можете удалять свои сообщения
Вы не можете голосовать в опросах
Вы не можете прикреплять файлы к сообщениям
Вы не можете скачивать файлы