Сталинград (Фёдор Бондарчук) [2013, Военный, драма, боевик, BDRip-AVC]

Ответить на тему
 
Автор Сообщение

user ®

Стаж: 7 лет 7 месяцев

Сообщений: 20008

Пост Пост: #1 от 03-Дек-2013 02:05

[Цитировать]

Сталинград Жанр: Военный, драма, боевик
Год выпуска: 2013
Продолжительность: 02:10:48
Режиссёр: Фёдор Бондарчук
В ролях: Пётр Фёдоров, Томас Кречманн, Мария Смольникова, Янина Студилина, Дмитрий Лысенков, Алексей Барабаш, Андрей Смоляков, Сергей Бондарчук, Олег Волку, Хайнер Лаутербах, Олег Тилькин, Ян Кузьмин, Кирилл Варакса, Полина Райкина, Юрий Уткин, Олег Малышев
Описание: Потерпев неудачу при попытке перейти Волгу и начать контрнаступление на немецкую армию, советские войска вынуждены отступать. Однако нескольким солдатам удалось перебраться на берег противника. Они остаются в меньшинстве и укрываются в прибрежном доме, где встречают девушку. Её дом заняли немцы, а сама она не успела покинуть линию фронта. На фоне самого кровопролитного в истории человечества сражения развивается история любви, и солдатам теперь любой ценой надо защитить эту девушку.
Качество видео: BDRip-AVC
Формат видео: MKV

Автор: nnlabetik

Семпл
Видео: 1024x422 (2.40:1), 23.976 fps, MPEG-4 AVC ~1930 kbps avg, 0.186 bit/pixel
Аудио: 48 kHz, AC3 Dolby Digital, 3/2 (L,C,R,l,r) + LFE ch, ~448 kbps

x264|MediaInfo

x264 [info]


crop(0, 144, 0, -144)
x264 [info]: frame I:1251 Avg QP:14.71 size: 73331
x264 [info]: frame P:39982 Avg QP:17.83 size: 22744
x264 [info]: frame B:146950 Avg QP:20.43 size: 6071
x264 [info]: consecutive B-frames: 1.6% 2.8% 8.6% 16.5% 13.8% 49.5% 3.3% 1.0% 2.0% 0.4% 0.5%
x264 [info]: mb I I16..4: 2.7% 77.7% 19.6%
x264 [info]: mb P I16..4: 0.4% 5.1% 1.1% P16..4: 31.9% 40.0% 18.7% 0.0% 0.0% skip: 2.8%
x264 [info]: mb B I16..4: 0.1% 0.5% 0.1% B16..8: 32.2% 21.7% 4.2% direct: 4.6% skip:36.7% L0:38.9% L1:44.7% BI:16.4%
x264 [info]: 8x8 transform intra:76.2% inter:51.6%
x264 [info]: direct mvs spatial:93.4% temporal:6.6%
x264 [info]: coded y,uvDC,uvAC intra: 82.0% 74.3% 55.7% inter: 23.4% 16.0% 2.8%
x264 [info]: i16 v,h,dc,p: 32% 44% 4% 20%
x264 [info]: i8 v,h,dc,ddl,ddr,vr,hd,vl,hu: 9% 9% 9% 9% 14% 12% 14% 11% 14%
x264 [info]: i4 v,h,dc,ddl,ddr,vr,hd,vl,hu: 14% 14% 13% 7% 11% 10% 11% 8% 12%
x264 [info]: i8c dc,h,v,p: 36% 33% 17% 14%
x264 [info]: Weighted P-Frames: Y:9.5% UV:4.2%
x264 [info]: ref P L0: 47.8% 13.6% 16.7% 6.6% 5.2% 3.8% 3.5% 2.2% 0.5% 0.0%
x264 [info]: ref B L0: 78.8% 10.8% 4.8% 2.4% 1.7% 1.0% 0.5%
x264 [info]: ref B L1: 93.4% 6.6%
x264 [info]: kb/s:1929.74
Общее
Уникальный идентификатор : 187267291742083300299463061463718182024 (0x8CE25E5482DB0163BF6BDEA06E643C88)
Полное имя : F:\Сталинград 2013\Stalingrad_2013.x264.(AVC).mkv
Формат : Matroska
Версия формата : Version 4 / Version 2
Размер файла : 2,17 Гбайт
Продолжительность : 2 ч. 10 м.
Общий поток : 2379 Кбит/сек
Дата кодирования : UTC 2013-12-02 16:40:10
Программа кодирования : mkvmerge v6.6.0 ('The Edge Of The In Between') built on Dec 1 2013 17:55:00
Библиотека кодирования : libebml v1.3.0 + libmatroska v1.4.1
Видео
Идентификатор : 1
Формат : AVC
Формат/Информация : Advanced Video Codec
Профиль формата : High@L4.1
Параметр CABAC формата : Да
Параметр ReFrames формата : 8 кадров
Идентификатор кодека : V_MPEG4/ISO/AVC
Продолжительность : 2 ч. 10 м.
Битрейт : 1930 Кбит/сек
Ширина : 1024 пикселя
Высота : 422 пикселя
Соотношение сторон : 2,40:1
Режим частоты кадров : Постоянный
Частота кадров : 23,976 кадра/сек
Цветовое пространство : YUV
Субдискретизация насыщенности : 4:2:0
Битовая глубина : 8 бит
Тип развёртки : Прогрессивная
Бит/(Пиксели*Кадры) : 0.186
Размер потока : 1,72 Гбайт (79%)
Заголовок : -=NN@LIFE=-
Библиотека кодирования : x264 core 138 r2358 9e941d1
Настройки программы : cabac=1 / ref=8 / deblock=1:-2:-1 / analyse=0x3:0x113 / me=umh / subme=11 / psy=1 / psy_rd=0.90:0.00 / mixed_ref=1 / me_range=32 / chroma_me=1 / trellis=2 / 8x8dct=1 / cqm=1 / deadzone=21,11 / fast_pskip=1 / chroma_qp_offset=-2 / threads=6 / lookahead_threads=1 / sliced_threads=0 / nr=0 / decimate=1 / interlaced=0 / bluray_compat=0 / constrained_intra=0 / bframes=10 / b_pyramid=2 / b_adapt=2 / b_bias=0 / direct=3 / weightb=1 / open_gop=0 / weightp=2 / keyint=240 / keyint_min=23 / scenecut=40 / intra_refresh=0 / rc_lookahead=50 / rc=2pass / mbtree=0 / bitrate=1930 / ratetol=1.0 / qcomp=0.70 / qpmin=3 / qpmax=69 / qpstep=4 / cplxblur=20.0 / qblur=0.5 / vbv_maxrate=50000 / vbv_bufsize=62500 / nal_hrd=none / ip_ratio=1.40 / pb_ratio=1.30 / aq=1:1.00
Язык : Russian
Default : Да
Forced : Нет
Аудио
Идентификатор : 2
Формат : AC-3
Формат/Информация : Audio Coding 3
Расширение режима : CM (complete main)
Параметр Endianness формата : Big
Идентификатор кодека : A_AC3
Продолжительность : 2 ч. 10 м.
Вид битрейта : Постоянный
Битрейт : 448 Кбит/сек
Каналы : 6 каналов
Расположение каналов : Front: L C R, Side: L R, LFE
Частота : 48,0 КГц
Битовая глубина : 16 бит
Метод сжатия : С потерями
Размер потока : 419 Мбайт (19%)
Язык : Russian
Default : Да
Forced : Нет
Меню
00:00:00.000 : :Chapter 01
00:15:37.436 : :Chapter 02
00:31:59.334 : :Chapter 03
00:46:05.888 : :Chapter 04
01:03:22.048 : :Chapter 05
01:20:44.840 : :Chapter 06
01:35:53.164 : :Chapter 07
01:51:11.790 : :Chapter 08
02:10:48.674 : :Chapter 09

Скриншоты

Скачать

Скачать торрент!

Как скачивать? · Что такое торрент? · Рейтинг и ограничения

Сайт не распространяет и не хранит электронные версии произведений, а лишь предоставляет доступ к создаваемому пользователями каталогу ссылок на торрент-файлы, которые содержат только списки хеш-сумм

[Профиль] [ЛС]
Показать сообщения:    
Ответить на тему

Текущее время: Сегодня 15:32

Часовой пояс: GMT + 4



Вы не можете начинать темы
Вы не можете отвечать на сообщения
Вы не можете редактировать свои сообщения
Вы не можете удалять свои сообщения
Вы не можете голосовать в опросах
Вы не можете прикреплять файлы к сообщениям
Вы не можете скачивать файлы