Апокалипсис / День апокалипсиса / End of the World (Стивен Р. Монро / Steven R. Monroe) [2013, Канада, фантастика, боевик, комедия, приключения, HDRip] MVO

Ответить на тему
 
Автор Сообщение

user ®

Стаж: 7 лет 7 месяцев

Сообщений: 20008

Пост Пост: #1 от 03-Дек-2013 02:05

[Цитировать]

-Апокалипсис / День апокалипсиса / End of the World-
Страна: Канада
Жанр: фантастика, боевик, комедия, приключения
Год выпуска: 2013
Продолжительность: 01:29:42
Перевод: Профессиональный (многоголосый закадровый)
Cубтитры: нет
Режиссер: Стивен Р. Монро / Steven R. Monroe
В ролях: Амитай Мэрморштейн, Кэролайн Кейв, Саймон Чин, Джеймс Ральф, Меррилин Гэнн, Нил Грэйстон, Марк Хилдрет, Грег Гранберг, Серж Уд, Брэд Дуриф
Описание: На Землю обрушивается поток космической электромагнитной плазмы. Системы электропередачи разрушены, связь не работает. И только два фанатика фантастических фильмов, работающих в видеопрокате, могут предотвратить конец света.
Качество видео: HDRip
Формат видео: AVI
Видео: XviD, 23,976fps, 1979 kb/s, 720x400
Аудио: AC3, 192 kb/s, 48.0 KHz, (2 ch)
- -

MediaInfo

Общее
Полное имя : C:\Раздачи\Apokalipsis.2013.P.HDRip.1400Mb.avi
Формат : AVI
Формат/Информация : Audio Video Interleave
Размер файла : 1,37 Гбайт
Продолжительность : 1 ч. 29 м.
Общий поток : 2181 Кбит/сек
Программа кодирования : VirtualDubMod 1.5.10.2 (build 2540/release)
Библиотека кодирования : VirtualDubMod build 2540/release
Видео
Идентификатор : 0
Формат : MPEG-4 Visual
Профиль формата : Advanced Simple@L5
Параметр BVOP формата : 2
Параметр QPel формата : Нет
Параметр GMC формата : Без точки перехода
Параметр матрицы формата : Default (MPEG)
Идентификатор кодека : XVID
Идентификатор кодека/Подсказка : XviD
Продолжительность : 1 ч. 29 м.
Битрейт : 1980 Кбит/сек
Ширина : 720 пикселей
Высота : 400 пикселей
Соотношение сторон : 16:9
Частота кадров : 23,976 кадра/сек
Цветовое пространство : YUV
Субдискретизация насыщенности : 4:2:0
Битовая глубина : 8 бит
Тип развёртки : Прогрессивная
Метод сжатия : С потерями
Бит/(Пиксели*Кадры) : 0.287
Размер потока : 1,24 Гбайт (91%)
Библиотека кодирования : XviD 1.2.1 (UTC 2008-12-04)
Аудио
Идентификатор : 1
Формат : AC-3
Формат/Информация : Audio Coding 3
Расширение режима : CM (complete main)
Параметр Endianness формата : Big
Идентификатор кодека : 2000
Продолжительность : 1 ч. 29 м.
Вид битрейта : Постоянный
Битрейт : 192 Кбит/сек
Каналы : 2 канала
Расположение каналов : Front: L R
Частота : 48,0 КГц
Битовая глубина : 16 бит
Метод сжатия : С потерями
Размер потока : 123 Мбайт (9%)
Выравнивание : Разделение по промежуткам
Продолжительность промежутка : 42 мс. (1,00 видеокадр)
Время предзагрузки промежутка : 500 мс.

Скриншот c названием фильма

Скриншоты



- -
Скачать

Скачать торрент!

Как скачивать? · Что такое торрент? · Рейтинг и ограничения

Сайт не распространяет и не хранит электронные версии произведений, а лишь предоставляет доступ к создаваемому пользователями каталогу ссылок на торрент-файлы, которые содержат только списки хеш-сумм

[Профиль] [ЛС]
Показать сообщения:    
Ответить на тему

Текущее время: Сегодня 16:18

Часовой пояс: GMT + 4



Вы не можете начинать темы
Вы не можете отвечать на сообщения
Вы не можете редактировать свои сообщения
Вы не можете удалять свои сообщения
Вы не можете голосовать в опросах
Вы не можете прикреплять файлы к сообщениям
Вы не можете скачивать файлы