Класс / Class (Льюис Джон Карлино / Lewis John Carlino) [1983, США, комедия, мелодрама, драма, HDTV 1080i] DVO (НТВ+) + AVO (А. Михалев) + Sub Eng + Sub Rus + Original Eng

Ответить на тему
 
Автор Сообщение

user ®

Стаж: 7 лет 7 месяцев

Сообщений: 20008

Пост Пост: #1 от 02-Дек-2013 22:55

[Цитировать]

Класс / Class
Страна: США
Студия: Orion Pictures Corporation
Жанр: комедия, мелодрама, драма
Год выпуска: 1983
Продолжительность: 01:34:20
Перевод 1: Профессиональный (двухголосый закадровый) НТВ+
Перевод 2: Авторский (одноголосый закадровый) Алексей Михалев
Cубтитры: русские, английские
Оригинальная аудиодорожка: английский
Режиссер: Льюис Джон Карлино / Lewis John Carlino
В ролях: Жаклин Биссет /Jacqueline Bisset/, Роб Лоу /Rob Lowe/, Эндрю МакКарти /Andrew McCarthy/, Стюарт Марголин /Stewart Margolin/, Клифф Робертсон /Cliff Robertson/, Вирджиния Мэдсен /Virginia Madsen/, Джон Кьюсак / John Cusack
Описание: Джонатан становится слушателем элитного учебного заведения, готовящего старшеклассников к поступлению в престижные университеты страны. Сосед по комнате подбивает Джонатана на ночные приключения с девочками. Однако тот выбирается в город один. В ночном баре Джонатан знакомится с эффектной женщиной, выглядещей достаточно молодо (Биссет). Последовавшая затем любовная связь приводит обоих к неожданным открытиям - любовница юноши оказывается матерью его соседа по комнате

IMDB
Тип релиза: HDTV 1080i
Контейнер: MKV
Видео: AVC 1920x1080 (16:9)) 25.0fps Bit rate 6644Kbps
Аудио 1: MP2 48.0 KHz 2ch. 192kbps rus DVO
Аудио 2: AC3 48.0 KHz 2ch. 192kbps rus AVO
Аудио 3: AC3 48.0 KHz 2ch. 192kbps eng
Формат субтитров: softsub (SRT)

MediaInfo

Общее
Уникальный идентификатор : 242999493597599789156423125023193432271 (0xB6D00007CD6A1EC9AAB48198A21600CF)
Полное имя : E:\torrent\Class_1983_HDTV 1080i.mkv
Формат : Matroska
Версия формата : Version 4 / Version 2
Размер файла : 4,85 Гбайт
Продолжительность : 1 ч. 34 м.
Общий поток : 7367 Кбит/сек
Дата кодирования : UTC 2013-12-02 08:20:44
Программа кодирования : mkvmerge v6.6.0 ('The Edge Of The In Between') built on Dec 1 2013 17:55:00
Библиотека кодирования : libebml v1.3.0 + libmatroska v1.4.1
Видео
Идентификатор : 1
Формат : AVC
Формат/Информация : Advanced Video Codec
Профиль формата : High@L4.0
Параметр CABAC формата : Да
Параметр ReFrames формата : 3 кадра
Параметр GOP формата : M=4, N=32
Идентификатор кодека : V_MPEG4/ISO/AVC
Продолжительность : 1 ч. 34 м.
Битрейт : 6644 Кбит/сек
Ширина : 1920 пикселей
Высота : 1080 пикселей
Соотношение сторон : 16:9
Режим частоты кадров : Постоянный
Частота кадров : 25,000 кадров/сек
Стандарт вещания : Component
Цветовое пространство : YUV
Субдискретизация насыщенности : 4:2:0
Битовая глубина : 8 бит
Тип развёртки : Чересстрочная
Порядок развёртки : Верхнее поле первое
Бит/(Пиксели*Кадры) : 0.128
Размер потока : 4,38 Гбайт (90%)
Заголовок : Class_1983_HDTV1080i
Default : Да
Forced : Нет
Основные цвета : BT.709
Характеристики трансфера : BT.709
Коэффициенты матрицы : BT.709
Аудио #1
Идентификатор : 2
Формат : MPEG Audio
Версия формата : Version 1
Профиль формата : Layer 2
Идентификатор кодека : A_MPEG/L2
Идентификатор кодека/Подсказка : MP2
Продолжительность : 1 ч. 34 м.
Вид битрейта : Постоянный
Битрейт : 192 Кбит/сек
Каналы : 2 канала
Частота : 48,0 КГц
Метод сжатия : С потерями
Размер потока : 130 Мбайт (3%)
Заголовок : Class_1983_MP2_2ch_DVO_NTV+
Язык : Russian
Default : Да
Forced : Нет
Аудио #2
Идентификатор : 3
Формат : AC-3
Формат/Информация : Audio Coding 3
Расширение режима : CM (complete main)
Параметр Endianness формата : Big
Идентификатор кодека : A_AC3
Продолжительность : 1 ч. 34 м.
Вид битрейта : Постоянный
Битрейт : 192 Кбит/сек
Каналы : 2 канала
Расположение каналов : Front: L R
Частота : 48,0 КГц
Битовая глубина : 16 бит
Метод сжатия : С потерями
Размер потока : 130 Мбайт (3%)
Заголовок : Class_1983_AC3_2ch_AVO_A.Mihalev
Язык : Russian
Default : Нет
Forced : Нет
Аудио #3
Идентификатор : 4
Формат : AC-3
Формат/Информация : Audio Coding 3
Расширение режима : CM (complete main)
Параметр Endianness формата : Big
Идентификатор кодека : A_AC3
Продолжительность : 1 ч. 34 м.
Вид битрейта : Постоянный
Битрейт : 192 Кбит/сек
Каналы : 2 канала
Расположение каналов : Front: L R
Частота : 48,0 КГц
Битовая глубина : 16 бит
Метод сжатия : С потерями
Размер потока : 130 Мбайт (3%)
Заголовок : Class_1983_AC3_2ch_original eng
Язык : English
Default : Нет
Forced : Нет
Текст #1
Идентификатор : 5
Формат : UTF-8
Идентификатор кодека : S_TEXT/UTF8
Идентификатор кодека/Информация : UTF-8 Plain Text
Заголовок : Class_1983_subtitle rus
Язык : Russian
Default : Нет
Forced : Нет
Текст #2
Идентификатор : 6
Формат : UTF-8
Идентификатор кодека : S_TEXT/UTF8
Идентификатор кодека/Информация : UTF-8 Plain Text
Заголовок : Class_1983_subtitle eng
Язык : English
Default : Нет
Forced : Нет

Скриншот с названием фильма

Скриншоты


Сравнение с DVD


Скачать

Скачать торрент!

Как скачивать? · Что такое торрент? · Рейтинг и ограничения

Сайт не распространяет и не хранит электронные версии произведений, а лишь предоставляет доступ к создаваемому пользователями каталогу ссылок на торрент-файлы, которые содержат только списки хеш-сумм

[Профиль] [ЛС]
Показать сообщения:    
Ответить на тему

Текущее время: Сегодня 11:40

Часовой пояс: GMT + 4



Вы не можете начинать темы
Вы не можете отвечать на сообщения
Вы не можете редактировать свои сообщения
Вы не можете удалять свои сообщения
Вы не можете голосовать в опросах
Вы не можете прикреплять файлы к сообщениям
Вы не можете скачивать файлы