Пипец 2 / Kick-Ass 2 (Джефф Уодлоу / Jeff Wadlow) [2013, США, Великобритания, боевик, комедия, криминал, HDRip] Dub

Ответить на тему
 
Автор Сообщение

user ®

Стаж: 7 лет 7 месяцев

Сообщений: 20008

Пост Пост: #1 от 02-Дек-2013 22:55

[Цитировать]

Пипец 2Kick-Ass 2«You Can't Fight Your Destiny»- Страна: США, Великобритания
Жанр: боевик, комедия, криминал
Год выпуска: 2013
Продолжительность: 01:43:00-Перевод: Профессиональный (полное дублирование) [iTunes Russia]
Субтитры: нет
Режиссер: Джефф Уодлоу / Jeff Wadlow
В ролях: Аарон Тейлор-Джонсон, Хлоя Грейс Морец, Кристофер Минц-Плассе, Джим Керри, Ольга Куркулина, Кларк Дьюк, Линди Бут, Дональд Фэйсон, Моррис Честнат, Август Прю, Роберт Эммс, Клаудия Ли-Описание: В реальной жизни не встретишь супергероя из комиксов, зато в ней есть настоящие герои. Харизматичный Пипец и гламурная Убивашка обрели новую команду поддержки во главе с Полковником Америка. Но кроме обычных мафиози, над городом нависает новая угроза - молодой мажор с очень дурным характером и целой армией отмороженных наемников.-


MPAA: R - Лицам до 17 лет обязательно присутствие взрослого-

Доп. Информация

Сценарий: Джефф Уодлоу / Jeff Wadlow, Марк Миллар / Mark Millar, Джон Ромита мл. / John Romita Jr.
Продюсер: Адам Болинг / Adam Bohling, Мэттью Вон / Matthew Vaughn, Тарквин Пэк / Tarquin Pack, Брэд Питт / Brad Pitt, Дэвид Рейд / David Reid
Оператор: Тим Морис-Джонс / Tim Maurice-Jones
Композитор: Генри Джекман / Henry Jackman, Мэттью Марджесон / Matthew Margeson
Бюджет: $28 000 000
Сборы в США: $28 795 985
Сборы в России: $1 806 980
Сборы в мире: $59 556 104
Мировая премьера: 14 августа 2013
Релиз на DVD: 19 декабря 2013,
«Двадцатый Век Фокс СНГ»

Релиз на Blu-ray: 19 декабря 2013,
«Двадцатый Век Фокс СНГ»
-Качество: HDRip (Исходник BDRip 1080p)
Контейнер: AVI
Видео: XviD, 640x272 (2.35:1), 811 kbps, 23,976 fps, 0,194 bpp
Аудио: MP3 / 2.0 / 48 kHz / 128 kbps /-

Знаете ли Вы, что...

  • Большинство удачных фраз Джима Керри - результат удачных импровизаций самого актёра.
  • Плакаты в комнате Дэйва - «Американский Иисус» и «Превосходный» - это два графических романа, написанные Марком Милларом.
  • Джим Керри сам купил реквизит, чтобы выглядеть так же как его персонаж в комиксах.
  • Это первый фильм Джеффа Уодлоу, получивший рейтинг «R».
  • Статуя ребенка в армейском шлеме с гранатой в руке, находящаяся в логове злодея, является работой британского художника Скуни (Schoony) и называется «Мальчик-солдат».
  • Эван Питерс не смог сыграть роль Тодда Хейнса из-за несогласованности расписаний съемок с сериалом «Американская история ужасов» (2011).
  • Когда Мать-Россия уничтожает полицейские машины, на фоне играет русская народная мелодия «Коробейники», используемая в игре «Тетрис».
  • В комиксах Полковник Звёзды и полосы - это два брата: Полковник Звёзды и Лейтенант Полосы.
  • Аарон Тейлор-Джонсон набрал 15 фунтов мышечной массы для роли.
  • Во время флэшбэка на похоронах можно заметить имя Марка Миллара в верхней части плаката. Марк Миллар является автором комиксов «Пипец» (Kick-Ass).
  • Джиму Керри в этом фильме отведено всего 7 минут и 45 секунд экранного времени.
  • еще 8 фактов
  • Когда Мать-Россия разрушает полицейские машины, она ставит газонокосилку на багажник одной, затем въезжает на ней задним ходом в другую машину, и запускает газонокосилку в лобовое стекло. У этой модели газонокосилки в рабочем режиме должна быть зажата управляющая ручка, в противном случае ее двигатель выключится.
  • Мать-Россия отрывает дверь автомобиля и использует ее в качестве щита, а затем бросает ее в полицейского, но при этом на ней уже нет никаких пулевых отверстий.
  • Когда злодеи находятся на своей базе, у Криса два пистолета на его костюме. Впоследствии это оружие исчезает.
  • Когда Пипец впервые входит в штаб-квартиру организации «Справедливость навсегда», на полке видна банка арахисового масла. После крупного плана Пипца банка исчезает.
  • В сцене, где во время тренировки Минди подстреливает Дэйва, в его куртке видны два пулевых отверстия, хотя стреляли в него всего один раз.
  • Когда Дэйв в больнице говорит, что он и есть Пипец, он снимает очки левой рукой. В правой руке у него цветы. Секунду спустя, когда он сидит на кровати, очки снова на нем.
  • еще 3 ошибки

Media Info

General
Complete name : G:\Pipets.2.2013.D.HDRip_700Mb.avi
Format : AVI
Format/Info : Audio Video Interleave
File size : 699 MiB
Duration : 1h 43mn
Overall bit rate : 948 Kbps
Writing application : VirtualDubMod 1.5.10.3 | www.virtualdub-fr.org || (build 2550/release)
Writing library : VirtualDubMod build 2550/release
Video
ID : 0
Format : MPEG-4 Visual
Format profile : Advanced Simple@L5
Format settings, BVOP : 1
Format settings, QPel : No
Format settings, GMC : No warppoints
Format settings, Matrix : Custom
Codec ID : XVID
Codec ID/Hint : XviD
Duration : 1h 43mn
Bit rate : 811 Kbps
Width : 640 pixels
Height : 272 pixels
Display aspect ratio : 2.35:1
Frame rate : 23.976 fps
Color space : YUV
Chroma subsampling : 4:2:0
Bit depth : 8 bits
Scan type : Progressive
Compression mode : Lossy
Bits/(Pixel*Frame) : 0.194
Stream size : 598 MiB (86%)
Writing library : XviD 1.2.1 (UTC 2008-12-04)
Audio
ID : 1
Format : MPEG Audio
Format version : Version 1
Format profile : Layer 3
Mode : Joint stereo
Mode extension : MS Stereo
Codec ID : 55
Codec ID/Hint : MP3
Duration : 1h 43mn
Bit rate mode : Constant
Bit rate : 128 Kbps
Channel(s) : 2 channels
Sampling rate : 48.0 KHz
Compression mode : Lossy
Stream size : 94.3 MiB (13%)
Alignment : Aligned on interleaves
Interleave, duration : 42 ms (1.00 video frame)
Interleave, preload duration : 504 ms

Скриншот с названием фильма

Скриншоты

Скачать

Скачать торрент!

Как скачивать? · Что такое торрент? · Рейтинг и ограничения

Сайт не распространяет и не хранит электронные версии произведений, а лишь предоставляет доступ к создаваемому пользователями каталогу ссылок на торрент-файлы, которые содержат только списки хеш-сумм

[Профиль] [ЛС]
Показать сообщения:    
Ответить на тему

Текущее время: Сегодня 00:06

Часовой пояс: GMT + 4



Вы не можете начинать темы
Вы не можете отвечать на сообщения
Вы не можете редактировать свои сообщения
Вы не можете удалять свои сообщения
Вы не можете голосовать в опросах
Вы не можете прикреплять файлы к сообщениям
Вы не можете скачивать файлы