Лесное трио / KJFG / Log Jam (Алексей Алексеев / Alexey Alexeev) [2007-2008, короткометражный анимационный фильм, DVDRemux]

Ответить на тему
 
Автор Сообщение

user ®

Стаж: 7 лет 7 месяцев

Сообщений: 20008

Пост Пост: #1 от 02-Дек-2013 16:35

[Цитировать]

Лесное трио
Log Jam
Год выпуска: 2007-2008
Страна: Россия
Жанр: короткометражный анимационный фильм : animated short film
Продолжительность: 00:06:00
Перевод: не требуется
Субтитры: отсутствуют- Режиссёр: Алексей Алексеев : Alexey Alexeev- Описание: Медведь, заяц и волк - забавные лесные музыканты с канала Niсkelodeon.
релиз: -Серии:
1. KJFG No.5 (00:01:59)
2. Луна / Moon (00:01:00)
3. Дождь / Rain (00:00:59)
4. Бревно / Log (00:00:59)
5. Змея / Snake (00:01:00)- Качество: DVDRemux
Формат: AVI
Видео кодек: MPEG2
Аудио кодек: AC3/PCM
Видео: 720x576, 25 fps, ~7380 kbps avg, 0.712 bit/pixel
Аудио: 48 kHz, AC3 Dolby Digital, 2/0 (L,R) ch, ~192 kbps

MediaInfo

Общее
Полное имя : C:\Лесное трио\Log Jam.2007-2008.DVDRemux\03. Rain.mpg
Формат : MPEG-PS
Размер файла : 55,1 Мбайт
Продолжительность : 59 с.
Режим общего битрейта : Переменный
Общий поток : 7725 Кбит/сек
Видео
Идентификатор : 224 (0xE0)
Формат : MPEG Video
Версия формата : Version 2
Профиль формата : Main@Main
Параметр BVOP формата : Да
Параметр матрицы формата : По умолчанию
Параметр GOP формата : M=3, N=12
Продолжительность : 59 с.
Вид битрейта : Переменный
Битрейт : 7380 Кбит/сек
Максимальный битрейт : 8000 Кбит/сек
Ширина : 720 пикселей
Высота : 576 пикселей
Соотношение сторон : 4:3
Частота кадров : 25,000 кадров/сек
Стандарт вещания : PAL
Цветовое пространство : YUV
Субдискретизация насыщенности : 4:2:0
Битовая глубина : 8 бит
Тип развёртки : Чересстрочная
Порядок развёртки : Нижнее поле первое
Метод сжатия : С потерями
Бит/(Пиксели*Кадры) : 0.712
Размер потока : 52,6 Мбайт (96%)
Аудио
Идентификатор : 189 (0xBD)-128 (0x80)
Формат : AC-3
Формат/Информация : Audio Coding 3
Расширение режима : CM (complete main)
Режим смешивания : DVD-Video
Продолжительность : 59 с.
Вид битрейта : Постоянный
Битрейт : 192 Кбит/сек
Каналы : 2 канала
Расположение каналов : Front: L R
Частота : 48,0 КГц
Битовая глубина : 16 бит
Метод сжатия : С потерями
Размер потока : 1,37 Мбайт (2%)
Скачать

Скачать торрент!

Как скачивать? · Что такое торрент? · Рейтинг и ограничения

Сайт не распространяет и не хранит электронные версии произведений, а лишь предоставляет доступ к создаваемому пользователями каталогу ссылок на торрент-файлы, которые содержат только списки хеш-сумм

[Профиль] [ЛС]
Показать сообщения:    
Ответить на тему

Текущее время: Сегодня 18:09

Часовой пояс: GMT + 4



Вы не можете начинать темы
Вы не можете отвечать на сообщения
Вы не можете редактировать свои сообщения
Вы не можете удалять свои сообщения
Вы не можете голосовать в опросах
Вы не можете прикреплять файлы к сообщениям
Вы не можете скачивать файлы