Стэнли и Айрис / Stanley & Iris (Мартин Ритт / Martin Ritt) [1990, США, Драма, мелодрама, HDTVRip 720p] AVO (Гаврилов) + DVO + Sub Eng + Original Eng

Ответить на тему
 
Автор Сообщение

user ®

Стаж: 7 лет 7 месяцев

Сообщений: 20008

Пост Пост: #1 от 02-Дек-2013 01:30

[Цитировать]

Стэнли и Айрис / Stanley & Iris
Страна: США
Студия: Metro-Goldwyn-Mayer (MGM)
Жанр: Драма, мелодрама
Год выпуска: 1990
Продолжительность: 01:39:52
Перевод 1: Авторский (одноголосый закадровый) АНДРЕЙ ГАВРИЛОВ
Перевод 2: Профессиональный (двухголосый закадровый)
Cубтитры: английские
Оригинальная аудиодорожка: английский
Режиссер: Мартин Ритт / Martin Ritt
В ролях: Джейн Фонда /Jane Fonda/, Роберт Де Ниро /Robert De Niro/, Свузи Кертц /Swoosie Kurtz/, Федор Шаляпин, Джэйми Шеридан /Jamey Sheridan/, Марта Плимптон /Martha Plimpton/, Харли Кросс /Harley Cross/
Описание: По роману Пэта Бэнкера "Юнион-стрит". Простая женщина (Фонда), все еще скорбящая о муже, умершем восемь месяцев назад, случайно знакомится с одиноким мужчиной (Де Ниро), который очень стесняется собственной неграмотности. Кончается все тем, что она учит его читать и они некоторое время ходят вокруг да около, пытаясь понять, а любовь ли все это... Незамысловатый сюжет высвечен очарованием и талантом двух великолепных звезд. (Иванов М.)
"Альтернативное описание" Если бы меня спросили ты знаешь режиссёра Мартина Ритта, я бы ответил отрицательно. Но после просмотра фильма «Стэнли и Айрис» я не поленился и посмотрел его фильмографию. Был приятно удивлён тем фактом, что он снимал фильмы с моим любимым Полом Ньюманом (""Парижский блюз», «Хад», «Омбре»). Такие вот сюрпризы можно встретить, если увлекаешься кино.
Но это было небольшое отступление, чтобы немного разогреть свою мысль, потому что фильм очень хороший. Добрый, немного сентиментальный, но в нём есть неповторимая аура тех людей, которые над ним работали. А работали помимо Мартина Ритта настоящие мастеровые: Роберт Де Ниро и Джейн Фонда. У них очень точно всё получилось, геометрически выверено. Если Джейн, играющая вполне обычную женщину Айрис не столь эффектна в актёрской игре, то Роберт, играющий человека Стэнли, который не умеет читать и писать, с лихвой компенсирует это дело. Работает, что называется за двоих. Очень нежная сцена, когда Стэнли катит на велике Джейн.
Парочку слов можно сказать непосредственно и о самой истории. Два человека, мужчина и женщина, уже не молодые. В том возрасте в каком мы их видим трудно и непросто сойтись. У каждого свои тараканы в голове, у каждого за плечами свой опыт, который может не позволить маленькой искорке перерасти в большое пламя. Это действительно нелегко. Но на то и есть такие режиссёры и такие актёры, чтобы люди верили в чудеса.
Отдельной красной нитью не могу не отметить небольшую, но характерную роль отца Стэнли. Ах, как он мне понравился. Какой человек интересный и незаурядный. И только несколько секунд назад я узнал, спасибо КиноПоиску, что эту роль исполнил сын Фёдора Ивановича Шаляпина. Такие вот две приятные новости.
Одним словом получилось хорошее светлое кино, которое всегда будет иметь своего зрителя!"
--------------------------------------------------
Оператор: Доналд МакЭлпайн /Donald McAlpine/
Сценарист: Хэрриэт Фрэнк-младшая /Harriet Frank, Jr./, Ирвинг Рэвитч /Irving Ravetch/
Продюсер: Алекс Винитски /Alex Winitsky/, Арлин Селлерс /Arlene Sellers/
Переводчики: Андрей Гаврилов
Монтажер: Сидни Левин /Sidney Levin/
Композитор: Джон Уильямс /John Williams/
Художник: Джоэл Шиллер /Joel Schiller/
--------------------------------------------------
КИНОПОИСК. RU
РЕЙТИНГ ФИЛЬМА: 7.192 оценки: 267
6,1/10 from 4 075 users
--------------------------------------------------
--------------------------------------------------
СЭМПЛ
--------------------------------------------------
Тип релиза: HDTVRip
Контейнер: MKV
Видео: 1280x720; 25.000 fps; ~ 3 500 Kbps; 0.152 Bits/Pixel
Аудио 1: Russian - 48 kHz, AC3 Dolby Digital, 2/0 (L,R) 2ch, ~192 kbps - Андрей Гаврилов
Аудио 2: Russian - 48 kHz, AC3 Dolby Digital, 2/0 (L,R) 2ch, ~192 kbps - DVO
Аудио 3: English - 48 kHz, AC3 Dolby Digital, 2/0 (L,R) 2ch, ~192 kbps - Original
Формат субтитров: English (*UTF-8)

MediaInfo

General
Complete name : F:\EXCLUZIVE=19\СТЭНЛИ И АЙРИС [Stenli_i_Airis.1989]\Stanley & Iris.1989\Stanley & Iris.1989.х264.HDTVRip 720p.mkv
Format : Matroska
File size : 2.85 GiB
Duration : 1h 39mn
Overall bit rate : 4 081 Kbps
Encoded date : UTC 2013-11-30 15:29:18
Writing application : mkvmerge v3.3.0 ('Language') built on Mar 24 2010 14:59:24
Writing library : libebml v0.8.0 + libmatroska v0.9.0
Video
ID : 1
Format : AVC
Format/Info : Advanced Video Codec
Format profile : High@L4.1
Format settings, CABAC : Yes
Format settings, ReFrames : 9 frames
Muxing mode : Container profile=Unknown@4.1
Codec ID : V_MPEG4/ISO/AVC
Duration : 1h 39mn
Bit rate : 3 500 Kbps
Width : 1 280 pixels
Height : 720 pixels
Display aspect ratio : 16:9
Frame rate : 25.000 fps
Color space : YUV
Chroma subsampling : 4:2:0
Bit depth : 8 bits
Scan type : Progressive
Bits/(Pixel*Frame) : 0.152
Stream size : 2.39 GiB (84%)
Title : Stjenli.i.Ajris.1989
Writing library : x264 core 125 r2208 d9d2288
Encoding settings : cabac=1 / ref=9 / deblock=1:-2:-2 / analyse=0x3:0x133 / me=umh / subme=10 / psy=1 / psy_rd=1.00:0.00 / mixed_ref=1 / me_range=32 / chroma_me=1 / trellis=2 / 8x8dct=1 / cqm=0 / deadzone=21,11 / fast_pskip=0 / chroma_qp_offset=-2 / threads=6 / lookahead_threads=1 / sliced_threads=0 / nr=0 / decimate=0 / interlaced=0 / bluray_compat=0 / constrained_intra=0 / bframes=7 / b_pyramid=2 / b_adapt=2 / b_bias=0 / direct=3 / weightb=1 / open_gop=0 / weightp=2 / keyint=250 / keyint_min=25 / scenecut=40 / intra_refresh=0 / rc_lookahead=60 / rc=abr / mbtree=1 / bitrate=3500 / ratetol=1.0 / qcomp=0.60 / qpmin=0 / qpmax=69 / qpstep=4 / ip_ratio=1.40 / aq=1:1.00
Language : English
Audio #1
ID : 2
Format : AC-3
Format/Info : Audio Coding 3
Mode extension : CM (complete main)
Codec ID : A_AC3
Duration : 1h 39mn
Bit rate mode : Constant
Bit rate : 192 Kbps
Channel(s) : 2 channels
Channel positions : Front: L R
Sampling rate : 48.0 KHz
Stream size : 137 MiB (5%)
Title : AVO (Гаврилов) @ AC3 2 ch. 192 kbps
Language : Russian
Audio #2
ID : 3
Format : AC-3
Format/Info : Audio Coding 3
Mode extension : CM (complete main)
Codec ID : A_AC3
Duration : 1h 39mn
Bit rate mode : Constant
Bit rate : 192 Kbps
Channel(s) : 2 channels
Channel positions : Front: L R
Sampling rate : 48.0 KHz
Stream size : 137 MiB (5%)
Title : DVO @ AC3 2 ch. 192 kbps
Language : Russian
Audio #3
ID : 4
Format : AC-3
Format/Info : Audio Coding 3
Mode extension : CM (complete main)
Codec ID : A_AC3
Duration : 1h 39mn
Bit rate mode : Constant
Bit rate : 192 Kbps
Channel(s) : 2 channels
Channel positions : Front: L R
Sampling rate : 48.0 KHz
Stream size : 137 MiB (5%)
Title : Original @ AC3 2 ch. 192 kbps
Language : English
Text
ID : 5
Format : UTF-8
Codec ID : S_TEXT/UTF8
Codec ID/Info : UTF-8 Plain Text
Title : (* UTF-8)
Language : English

Скриншоты

, ,
. ,
, ,
Скачать

Скачать торрент!

Как скачивать? · Что такое торрент? · Рейтинг и ограничения

Сайт не распространяет и не хранит электронные версии произведений, а лишь предоставляет доступ к создаваемому пользователями каталогу ссылок на торрент-файлы, которые содержат только списки хеш-сумм

[Профиль] [ЛС]
Показать сообщения:    
Ответить на тему

Текущее время: Сегодня 10:03

Часовой пояс: GMT + 4



Вы не можете начинать темы
Вы не можете отвечать на сообщения
Вы не можете редактировать свои сообщения
Вы не можете удалять свои сообщения
Вы не можете голосовать в опросах
Вы не можете прикреплять файлы к сообщениям
Вы не можете скачивать файлы