Валерий Харламов. Дополнительное время (Юрий Стааль) [2007, драма, биография, спорт, DVDRip]

Ответить на тему
 
Автор Сообщение

user ®

Стаж: 7 лет 7 месяцев

Сообщений: 20008

Пост Пост: #1 от 02-Дек-2013 01:30

[Цитировать]

Валерий Харламов. Дополнительное время
Жанр: драма, биография, спорт
Год выпуска: 2007
Продолжительность: 01:30:55
-
Режиссёр: Юрий Стааль
В ролях: Алексей Чадов, Дмитрий Харатьян, Ольга Красько, Сергей Жарков, Наталья Чернявская, Дмитрий Аросьев
-
Описание: Это история жизни выдающегося советского хоккеиста Валерия Харламова. Говорят, что иногда люди способны предчувствовать свою смерть, тогда перед их глазами за короткий отрезок времени проходит вся жизнь, все наиболее значимые моменты, все дорогие человеку люди. Сюжет картины и манера повествования резко отличается от всего того, что уже снято или написано на эту тему. Как обычный русский паренек, имеющий врожденный порок сердца и являющийся из-за дефекта речи вечной мишенью для острот своих сверстников, смог дважды стать Олимпийским чемпионом, восемь раз — Чемпионом мира, стать легендой отечественного хоккея и образцом для подражания нескольких поколений профессионалов и спортсменов-любителей? Что стояло за всеми этими, какой ценой это было достигнуто, и какую цену пришлось заплатить впоследствии?
-

-
Качество видео: DVDRip (Исходник DVD9)
Формат видео: AVI
Видео: 720x400 (1.80:1), 25 fps, XviD build 73 ~1839 kbps avg, 0.26 bit/pixel
Аудио: 48 kHz, AC3 Dolby Digital, 3/2 (L,C,R,l,r) + LFE ch, ~448 kbps

MediaInfo

General
Complete name : D:\Релизы\Валерий Харламов.Дополнительное время.2007.DVDRip.XviD.AC3.avi
Format : AVI
Format/Info : Audio Video Interleave
File size : 1.46 GiB
Duration : 1h 30mn
Overall bit rate : 2 297 Kbps
Writing application : VirtualDubMod 1.5.10.2 (build 2540/release)
Writing library : VirtualDubMod build 2540/release
Video
ID : 0
Format : MPEG-4 Visual
Format profile : Advanced Simple@L5
Format settings, BVOP : 1
Format settings, QPel : No
Format settings, GMC : No warppoints
Format settings, Matrix : Custom
Codec ID : XVID
Codec ID/Hint : XviD
Duration : 1h 30mn
Bit rate : 1 840 Kbps
Width : 720 pixels
Height : 400 pixels
Display aspect ratio : 16:9
Frame rate : 25.000 fps
Color space : YUV
Chroma subsampling : 4:2:0
Bit depth : 8 bits
Scan type : Progressive
Compression mode : Lossy
Bits/(Pixel*Frame) : 0.255
Stream size : 1.17 GiB (80%)
Writing library : XviD 73
Audio
ID : 1
Format : AC-3
Format/Info : Audio Coding 3
Mode extension : CM (complete main)
Format settings, Endianness : Big
Codec ID : 2000
Duration : 1h 30mn
Bit rate mode : Constant
Bit rate : 448 Kbps
Channel(s) : 6 channels
Channel positions : Front: L C R, Side: L R, LFE
Sampling rate : 48.0 KHz
Bit depth : 16 bits
Compression mode : Lossy
Stream size : 291 MiB (20%)
Alignment : Split accross interleaves
Interleave, duration : 40 ms (1.00 video frame)
Interleave, preload duration : 500 ms

Скриншоты

Скачать

Скачать торрент!

Как скачивать? · Что такое торрент? · Рейтинг и ограничения

Сайт не распространяет и не хранит электронные версии произведений, а лишь предоставляет доступ к создаваемому пользователями каталогу ссылок на торрент-файлы, которые содержат только списки хеш-сумм

[Профиль] [ЛС]
Показать сообщения:    
Ответить на тему

Текущее время: Сегодня 01:50

Часовой пояс: GMT + 4



Вы не можете начинать темы
Вы не можете отвечать на сообщения
Вы не можете редактировать свои сообщения
Вы не можете удалять свои сообщения
Вы не можете голосовать в опросах
Вы не можете прикреплять файлы к сообщениям
Вы не можете скачивать файлы