Уличные танцы 2 / StreetDance 2 (Макс Джива, Дания Пасквини / Max Giwa, Dania Pasquini) [2012, Германия, Великобритания, Музыка, мелодрама, Blu-ray disc] Dub + Sub Rus + Original Eng

Ответить на тему
 
Автор Сообщение

user ®

Стаж: 7 лет 7 месяцев

Сообщений: 20008

Пост Пост: #1 от 01-Дек-2013 19:10

[Цитировать]

Уличные танцы 2
StreetDance 2
Страна: Германия, Великобритания
Студия: Vertigo Films, BBC Films, British Film Institute
Жанр: Музыка, мелодрама
Год выпуска: 2012
Продолжительность: 1:24:57
Перевод: Профессиональный (дублированный)
Cубтитры: русские
Оригинальная аудиодорожка: английский
Режиссер: Макс Джива, Дания Пасквини / Max Giwa, Dania Pasquini
В ролях: София Бутелла, Джордж Сэмпсон, Том Конти, Фальк Хеншел, Стефани Нгуйен, Элла Рэгг, Джоанна Джеффрис, Джеймс Майкл Ранкин, Ли Крэвен, Элизабетта Ди Карло
Описание: Уличный танцор Эш жаждет реванша за проигрыш на конкурсе Streetdance, и хочет собрать команду, которой не будет равных. В поисках, которые забрасывают его в самые разные уголки мира, Эш встречает девушку Еву, танцующую сальсу, и влюбляется в нее. В Еве он видит свое счастье, свой собственный танец, свою победу… Но завоевать сердце этой девушки не так просто.
Свобода самовыражения и мастерство импровизации, страсть сальсы и дерзость ринга — все это танцы, танцы, танцы — в школах, в клубах, на улицах Рима, Парижа, Лондона, Нью-Йорка.
Бонусы:
1. Фильм о фильме
2. Интервью с создателями фильма
Меню: анимированное, озвученное

Тип релиза: Blu-ray disc
Контейнер: BDMV
Видео: MPEG-4 AVC, 30000 Кбит/с, 1920x1080, 23.976 кадр/с, High Profile 4.1
Аудио 1: DTS-HD Master Audio Russian 2505 kbps 5.1 / 48 kHz / 2505 kbps / 16-bit (DTS Core: 5.1 / 48 kHz / 1509 kbps / 16-bit)
Аудио 2: Dolby Digital Audio Russian 192 kbps 2.0 / 48 kHz / 192 kbps
Аудио 3: Dolby TrueHD Audio Russian 2044 kbps 5.1 / 48 kHz / 2044 kbps / 16-bit (AC3 Embedded: 5.1 / 48 kHz / 640 kbps)
Аудио 4: DTS-HD Master Audio English 2639 kbps 5.1 / 48 kHz / 2639 kbps / 16-bit (DTS Core: 5.1 / 48 kHz / 1509 kbps / 16-bit)

BDInfo

Disc Title: Blu-Ray
Disc Size: 30 149 422 888 bytes
Protection: AACS
BD-Java: No
Extras: 50Hz Content
BDInfo: 0.5.8
Notes:
BDINFO HOME:
Cinema Squid
http://www.cinemasquid.com/blu-ray/tools/bdinfo
INCLUDES FORUMS REPORT FOR:
AVS Forum Blu-ray Audio and Video Specifications Thread
http://www.avsforum.com/avs-vb/showthread.php?t=1155731
********************
PLAYLIST: 00002.MPLS
********************
Total   Video
Title                                                           Codec   Length  Movie Size      Disc Size       Bitrate Bitrate Main Audio Track                          Secondary Audio Track
-----                                                           ------  ------- --------------  --------------  ------- ------- ------------------                        ---------------------
00002.MPLS                                                      AVC     1:24:57 26 332 102 656  30 149 422 888  41,33   30,00   DTS-HD Master 5.1 2505Kbps (48kHz/16-bit) Dolby TrueHD 5.1 2044Kbps (48kHz/16-bit)
DISC INFO:
Disc Title:     Blu-Ray
Disc Size:      30 149 422 888 bytes
Protection:     AACS
BD-Java:        No
Extras:         50Hz Content
BDInfo:         0.5.8
PLAYLIST REPORT:
Name:                   00002.MPLS
Length:                 1:24:57.175 (h:m:s.ms)
Size:                   26 332 102 656 bytes
Total Bitrate:          41,33 Mbps
VIDEO:
Codec                   Bitrate             Description
-----                   -------             -----------
MPEG-4 AVC Video        30000 kbps          1080p / 23,976 fps / 16:9 / High Profile 4.1
AUDIO:
Codec                           Language        Bitrate         Description
-----                           --------        -------         -----------
DTS-HD Master Audio             Russian         2505 kbps       5.1 / 48 kHz / 2505 kbps / 16-bit (DTS Core: 5.1 / 48 kHz / 1509 kbps / 16-bit)
Dolby Digital Audio             Russian         192 kbps        2.0 / 48 kHz / 192 kbps
Dolby TrueHD Audio              Russian         2044 kbps       5.1 / 48 kHz / 2044 kbps / 16-bit (AC3 Embedded: 5.1 / 48 kHz / 640 kbps)
DTS-HD Master Audio             English         2639 kbps       5.1 / 48 kHz / 2639 kbps / 16-bit (DTS Core: 5.1 / 48 kHz / 1509 kbps / 16-bit)
SUBTITLES:
Codec                           Language        Bitrate         Description
-----                           --------        -------         -----------
Presentation Graphics           Russian         19,039 kbps
FILES:
Name            Time In         Length          Size            Total Bitrate
----            -------         ------          ----            -------------
00005.M2TS      0:00:00.000     1:24:57.175     26 332 102 656  41 328
CHAPTERS:
Number          Time In         Length          Avg Video Rate  Max 1-Sec Rate  Max 1-Sec Time  Max 5-Sec Rate  Max 5-Sec Time  Max 10Sec Rate  Max 10Sec Time  Avg Frame Size  Max Frame Size  Max Frame Time
------          -------         ------          --------------  --------------  --------------  --------------  --------------  --------------  --------------  --------------  --------------  --------------
1               0:00:00.000     0:04:54.002     30 051 kbps     52 065 kbps     00:00:17.892    33 567 kbps     00:01:00.226    31 871 kbps     00:01:14.657    156 651 bytes   904 220 bytes   00:00:00.041
2               0:04:54.002     0:05:14.147     29 985 kbps     50 903 kbps     00:06:08.201    33 149 kbps     00:08:45.733    31 995 kbps     00:05:59.150    156 329 bytes   983 775 bytes   00:05:08.599
3               0:10:08.149     0:06:47.865     29 993 kbps     44 341 kbps     00:15:59.667    32 661 kbps     00:14:30.035    31 325 kbps     00:10:17.742    156 372 bytes   588 907 bytes   00:12:41.093
4               0:16:56.015     0:06:18.711     30 025 kbps     45 579 kbps     00:22:15.292    32 762 kbps     00:17:06.525    31 447 kbps     00:22:15.292    156 537 bytes   615 416 bytes   00:16:56.890
5               0:23:14.726     0:07:11.180     30 004 kbps     44 035 kbps     00:24:42.898    32 904 kbps     00:28:43.555    31 449 kbps     00:24:42.981    156 430 bytes   575 771 bytes   00:27:50.919
6               0:30:25.907     0:07:59.312     29 994 kbps     46 223 kbps     00:36:34.650    33 109 kbps     00:37:27.370    31 589 kbps     00:37:27.411    156 375 bytes   627 890 bytes   00:36:14.589
7               0:38:25.219     0:08:12.575     29 996 kbps     41 805 kbps     00:38:26.178    32 473 kbps     00:39:12.725    31 326 kbps     00:45:17.840    156 383 bytes   561 341 bytes   00:38:27.138
8               0:46:37.795     0:11:33.234     30 006 kbps     44 236 kbps     00:55:17.522    32 735 kbps     00:55:17.522    31 165 kbps     00:50:31.570    156 438 bytes   485 188 bytes   00:50:17.264
9               0:58:11.029     0:09:03.918     29 997 kbps     48 136 kbps     01:04:36.789    33 743 kbps     00:59:41.953    31 470 kbps     00:59:41.869    156 390 bytes   884 193 bytes   01:04:36.831
10              1:07:14.947     0:07:45.631     29 986 kbps     46 444 kbps     01:12:10.993    33 481 kbps     01:08:00.659    31 653 kbps     01:12:10.951    156 334 bytes   711 136 bytes   01:07:37.344
11              1:15:00.579     0:05:50.391     29 979 kbps     43 182 kbps     01:17:45.911    33 159 kbps     01:16:20.075    31 490 kbps     01:16:59.990    156 298 bytes   735 640 bytes   01:19:16.585
12              1:20:50.971     0:04:06.204     29 983 kbps     33 954 kbps     01:22:13.053    31 017 kbps     01:21:54.034    30 447 kbps     01:21:49.029    156 346 bytes   572 985 bytes   01:22:18.058
STREAM DIAGNOSTICS:
File            PID             Type            Codec           Language                Seconds                 Bitrate                 Bytes           Packets
----            ---             ----            -----           --------                --------------          --------------          -------------   -----
00005.M2TS      4113 (0x1011)   0x1B            AVC                                     5097,092                30 000                  19 114 251 744  103 954 927
00005.M2TS      4352 (0x1100)   0x86            DTS-HD MA       rus (Russian)           5097,092                2 505                   1 596 200 136   9 466 298
00005.M2TS      4353 (0x1101)   0x81            AC3             rus (Russian)           5097,092                192                     122 333 184     796 440
00005.M2TS      4354 (0x1102)   0x83            TrueHD          rus (Russian)           5097,092                2 684                   1 709 933 836   12 752 071
00005.M2TS      4355 (0x1103)   0x86            DTS-HD MA       eng (English)           5097,092                2 639                   1 681 717 852   9 934 677
00005.M2TS      4608 (0x1200)   0x90            PGS             rus (Russian)           5097,092                19                      12 130 559      70 999
QUICK SUMMARY:
Disc Title: Blu-Ray
Disc Size: 30 149 422 888 bytes
Protection: AACS
BD-Java: No
Playlist: 00002.MPLS
Size: 26 332 102 656 bytes
Length: 1:24:57.175
Total Bitrate: 41,33 Mbps
Video: MPEG-4 AVC Video / 30000 kbps / 1080p / 23,976 fps / 16:9 / High Profile 4.1
Audio: Russian / DTS-HD Master Audio / 5.1 / 48 kHz / 2505 kbps / 16-bit (DTS Core: 5.1 / 48 kHz / 1509 kbps / 16-bit)
Audio: Russian / Dolby Digital Audio / 2.0 / 48 kHz / 192 kbps
Audio: Russian / Dolby TrueHD Audio / 5.1 / 48 kHz / 2044 kbps / 16-bit (AC3 Embedded: 5.1 / 48 kHz / 640 kbps)
Audio: English / DTS-HD Master Audio / 5.1 / 48 kHz / 2639 kbps / 16-bit (DTS Core: 5.1 / 48 kHz / 1509 kbps / 16-bit)
Subtitle: Russian / 19,039 kbps
********************
PLAYLIST: 00004.MPLS
********************
Total   Video
Title                                                           Codec   Length  Movie Size      Disc Size       Bitrate Bitrate Main Audio Track                          Secondary Audio Track
-----                                                           ------  ------- --------------  --------------  ------- ------- ------------------                        ---------------------
00004.MPLS                                                      MPEG-2  0:37:50 2 380 449 792   30 149 422 888  8,39    6,20    LPCM 2.0 1536Kbps (48kHz/16-bit)
DISC INFO:
Disc Title:     Blu-Ray
Disc Size:      30 149 422 888 bytes
Protection:     AACS
BD-Java:        No
Extras:         50Hz Content
BDInfo:         0.5.8
PLAYLIST REPORT:
Name:                   00004.MPLS
Length:                 0:37:50.040 (h:m:s.ms)
Size:                   2 380 449 792 bytes
Total Bitrate:          8,39 Mbps
VIDEO:
Codec                   Bitrate             Description
-----                   -------             -----------
MPEG-2 Video            6202 kbps           576i / 25 fps / 16:9
AUDIO:
Codec                           Language        Bitrate         Description
-----                           --------        -------         -----------
LPCM Audio                      Russian         1536 kbps       2.0 / 48 kHz / 1536 kbps / 16-bit
FILES:
Name            Time In         Length          Size            Total Bitrate
----            -------         ------          ----            -------------
00009.M2TS      0:00:00.000     0:37:50.040     2 380 449 792   8 389
CHAPTERS:
Number          Time In         Length          Avg Video Rate  Max 1-Sec Rate  Max 1-Sec Time  Max 5-Sec Rate  Max 5-Sec Time  Max 10Sec Rate  Max 10Sec Time  Avg Frame Size  Max Frame Size  Max Frame Time
------          -------         ------          --------------  --------------  --------------  --------------  --------------  --------------  --------------  --------------  --------------  --------------
1               0:00:00.000     0:37:50.040     6 202 kbps      8 418 kbps      00:29:29.760    7 251 kbps      00:26:56.239    7 115 kbps      00:20:37.920    31 012 bytes    201 006 bytes   00:09:07.240
STREAM DIAGNOSTICS:
File            PID             Type            Codec           Language                Seconds                 Bitrate                 Bytes           Packets
----            ---             ----            -----           --------                --------------          --------------          -------------   -----
00009.M2TS      4113 (0x1011)   0x02            MPEG-2                                  2269,920                6 203                   1 759 953 414   9 598 102
00009.M2TS      4352 (0x1100)   0x80            LPCM            rus (Russian)           2269,920                1 542                   437 659 856     2 724 024
QUICK SUMMARY:
Disc Title: Blu-Ray
Disc Size: 30 149 422 888 bytes
Protection: AACS
BD-Java: No
Playlist: 00004.MPLS
Size: 2 380 449 792 bytes
Length: 0:37:50.040
Total Bitrate: 8,39 Mbps
Video: MPEG-2 Video / 6202 kbps / 576i / 25 fps / 16:9
Audio: Russian / LPCM Audio / 2.0 / 48 kHz / 1536 kbps / 16-bit
********************
PLAYLIST: 00005.MPLS
********************
Total   Video
Title                                                           Codec   Length  Movie Size      Disc Size       Bitrate Bitrate Main Audio Track                          Secondary Audio Track
-----                                                           ------  ------- --------------  --------------  ------- ------- ------------------                        ---------------------
00005.MPLS                                                      MPEG-2  0:19:39 1 245 677 568   30 149 422 888  8,45    6,26    LPCM 2.0 1536Kbps (48kHz/16-bit)
DISC INFO:
Disc Title:     Blu-Ray
Disc Size:      30 149 422 888 bytes
Protection:     AACS
BD-Java:        No
Extras:         50Hz Content
BDInfo:         0.5.8
PLAYLIST REPORT:
Name:                   00005.MPLS
Length:                 0:19:39.200 (h:m:s.ms)
Size:                   1 245 677 568 bytes
Total Bitrate:          8,45 Mbps
VIDEO:
Codec                   Bitrate             Description
-----                   -------             -----------
MPEG-2 Video            6262 kbps           576i / 25 fps / 16:9
AUDIO:
Codec                           Language        Bitrate         Description
-----                           --------        -------         -----------
LPCM Audio                      Russian         1536 kbps       2.0 / 48 kHz / 1536 kbps / 16-bit
FILES:
Name            Time In         Length          Size            Total Bitrate
----            -------         ------          ----            -------------
00010.M2TS      0:00:00.000     0:19:39.200     1 245 677 568   8 451
CHAPTERS:
Number          Time In         Length          Avg Video Rate  Max 1-Sec Rate  Max 1-Sec Time  Max 5-Sec Rate  Max 5-Sec Time  Max 10Sec Rate  Max 10Sec Time  Avg Frame Size  Max Frame Size  Max Frame Time
------          -------         ------          --------------  --------------  --------------  --------------  --------------  --------------  --------------  --------------  --------------  --------------
1               0:00:00.000     0:19:39.200     6 262 kbps      8 409 kbps      00:03:02.200    7 192 kbps      00:03:01.120    7 021 kbps      00:00:08.759    31 308 bytes    202 180 bytes   00:13:24.559
STREAM DIAGNOSTICS:
File            PID             Type            Codec           Language                Seconds                 Bitrate                 Bytes           Packets
----            ---             ----            -----           --------                --------------          --------------          -------------   -----
00010.M2TS      4113 (0x1011)   0x02            MPEG-2                                  1179,120                6 262                   922 971 721     5 033 346
00010.M2TS      4352 (0x1100)   0x80            LPCM            rus (Russian)           1179,120                1 543                   227 349 760     1 415 040
QUICK SUMMARY:
Disc Title: Blu-Ray
Disc Size: 30 149 422 888 bytes
Protection: AACS
BD-Java: No
Playlist: 00005.MPLS
Size: 1 245 677 568 bytes
Length: 0:19:39.200
Total Bitrate: 8,45 Mbps
Video: MPEG-2 Video / 6262 kbps / 576i / 25 fps / 16:9
Audio: Russian / LPCM Audio / 2.0 / 48 kHz / 1536 kbps / 16-bit
********************
PLAYLIST: 00000.MPLS
********************
Total   Video
Title                                                           Codec   Length  Movie Size      Disc Size       Bitrate Bitrate Main Audio Track                          Secondary Audio Track
-----                                                           ------  ------- --------------  --------------  ------- ------- ------------------                        ---------------------
00000.MPLS                                                      AVC     0:00:23 27 475 968      30 149 422 888  9,28    8,63    DD AC3 2.0 256Kbps
DISC INFO:
Disc Title:     Blu-Ray
Disc Size:      30 149 422 888 bytes
Protection:     AACS
BD-Java:        No
Extras:         50Hz Content
BDInfo:         0.5.8
PLAYLIST REPORT:
Name:                   00000.MPLS
Length:                 0:00:23.690 (h:m:s.ms)
Size:                   27 475 968 bytes
Total Bitrate:          9,28 Mbps
VIDEO:
Codec                   Bitrate             Description
-----                   -------             -----------
MPEG-4 AVC Video        8626 kbps           1080p / 23,976 fps / 16:9 / High Profile 4.1
AUDIO:
Codec                           Language        Bitrate         Description
-----                           --------        -------         -----------
Dolby Digital Audio             Russian         256 kbps        2.0 / 48 kHz / 256 kbps / DN -4dB
FILES:
Name            Time In         Length          Size            Total Bitrate
----            -------         ------          ----            -------------
00000.M2TS      0:00:00.000     0:00:07.006     1 603 584       1 831
00001.M2TS      0:00:07.006     0:00:16.683     25 872 384      12 406
CHAPTERS:
Number          Time In         Length          Avg Video Rate  Max 1-Sec Rate  Max 1-Sec Time  Max 5-Sec Rate  Max 5-Sec Time  Max 10Sec Rate  Max 10Sec Time  Avg Frame Size  Max Frame Size  Max Frame Time
------          -------         ------          --------------  --------------  --------------  --------------  --------------  --------------  --------------  --------------  --------------  --------------
1               0:00:00.000     0:00:23.690     8 626 kbps      21 534 kbps     00:00:14.139    13 638 kbps     00:00:07.257    13 383 kbps     00:00:07.173    44 974 bytes    321 699 bytes   00:00:14.514
STREAM DIAGNOSTICS:
File            PID             Type            Codec           Language                Seconds                 Bitrate                 Bytes           Packets
----            ---             ----            -----           --------                --------------          --------------          -------------   -----
00000.M2TS      4113 (0x1011)   0x1B            AVC                                     6,882                   1 720                   1 479 975       8 105
00001.M2TS      4113 (0x1011)   0x1B            AVC                                     16,600                  11 598                  24 065 355      131 020
00001.M2TS      4352 (0x1100)   0x81            AC3             rus (Russian)           16,600                  258                     534 528         3 132
QUICK SUMMARY:
Disc Title: Blu-Ray
Disc Size: 30 149 422 888 bytes
Protection: AACS
BD-Java: No
Playlist: 00000.MPLS
Size: 27 475 968 bytes
Length: 0:00:23.690
Total Bitrate: 9,28 Mbps
Video: MPEG-4 AVC Video / 8626 kbps / 1080p / 23,976 fps / 16:9 / High Profile 4.1
Audio: Russian / Dolby Digital Audio / 2.0 / 48 kHz / 256 kbps / DN -4dB

Скриншоты меню

Скриншоты

Скачать

Скачать торрент!

Как скачивать? · Что такое торрент? · Рейтинг и ограничения

Сайт не распространяет и не хранит электронные версии произведений, а лишь предоставляет доступ к создаваемому пользователями каталогу ссылок на торрент-файлы, которые содержат только списки хеш-сумм

[Профиль] [ЛС]
Показать сообщения:    
Ответить на тему

Текущее время: Сегодня 18:16

Часовой пояс: GMT + 4



Вы не можете начинать темы
Вы не можете отвечать на сообщения
Вы не можете редактировать свои сообщения
Вы не можете удалять свои сообщения
Вы не можете голосовать в опросах
Вы не можете прикреплять файлы к сообщениям
Вы не можете скачивать файлы