Пять душ / 5 душ / 5 Souls (Бретт Доноху / Brett Donowho) [2013, США, триллер, WEB-DLRip] DVO + Original (Eng)

Ответить на тему
 
Автор Сообщение

user ®

Стаж: 7 лет 7 месяцев

Сообщений: 20008

Пост Пост: #1 от 01-Дек-2013 19:10

[Цитировать]

5 душ5 Souls- Страна: США
Жанр: триллер
Год выпуска: 2013
Продолжительность: 01:18:57-Перевод: Любительский (двухголосый)[den904 и DeadSno]
Оригинальная аудиодорожка: английский
Субтитры: нет
Режиссер: Бретт Доноху / Brett Donowho
В ролях: Кристина Анапау, Самира Армстронг, Стив Бачич, Иэн Боэн, Рекс Камминг, Элисон МакЭти, Джоди Мур, Меган Мюррэй, Райан С. Сэндс, Стивен Шуб, Чарльз Соломон мл., Наташа Валдез-Описание: Как далеко ты способен зайти ради спасения своей души? А жизни? Недобросовестный архитектор, работающий на крупную строительную компанию, впадает в кому... Блуждая в закоулках параллельного мира, он встречает четыре блуждающие души людей, погибших по его вине, а также свою душу и Дудочника, которой ставит его перед выбором: убить снова и пойти против своей совести или же самому быть убитым...-

-

Доп. Информация

Сценарий: Колет Абеди / Colet Abedi
Продюсер: Бретт Доноху / Brett Donowho, Пол Хадсон / Paul Hudson, Мартин Уайли / Martin Wiley, Кристина Анапау / Kristina Anapau, Рик Дагдэйл / Rick Dugdale
Оператор: Эдд Лукас / Edd Lukas
Композитор: Ной Поттер / Noah Potter
-Качество: WEB-DLRip
Контейнер: AVI
Видео: XviD, 720x400 (16:9), 1696 kbps, 23,976 fps, 0,246 bpp
Аудио №1: Russian: AC3 / 5.1 / 48 kHz / 384 kbps / 16 bit
Аудио №2: English: AC3 / 5.1 / 48 kHz / 384 kbps / 16 bit-

Media Info

Общее
Полное имя : G:\5.Souls.2013.L.WEBDLRip_1400Mb.avi
Формат : AVI
Формат/Информация : Audio Video Interleave
Размер файла : 1,37 Гбайт
Продолжительность : 1 ч. 18 м.
Общий поток : 2479 Кбит/сек
Программа кодирования : VirtualDubMod 1.5.10.3 | www.virtualdub-fr.org || (build 2550/release)
Библиотека кодирования : VirtualDubMod build 2550/release
Видео
Идентификатор : 0
Формат : MPEG-4 Visual
Профиль формата : Advanced Simple@L5
Параметр BVOP формата : 1
Параметр QPel формата : Нет
Параметр GMC формата : Без точки перехода
Параметр матрицы формата : Выборочная
Идентификатор кодека : XVID
Идентификатор кодека/Подсказка : XviD
Продолжительность : 1 ч. 18 м.
Битрейт : 1697 Кбит/сек
Ширина : 720 пикселей
Высота : 400 пикселей
Соотношение сторон : 16:9
Частота кадров : 23,976 кадра/сек
Цветовое пространство : YUV
Субдискретизация насыщенности : 4:2:0
Битовая глубина : 8 бит
Тип развёртки : Прогрессивная
Метод сжатия : С потерями
Бит/(Пиксели*Кадры) : 0.246
Размер потока : 958 Мбайт (68%)
Библиотека кодирования : XviD 1.2.1 (UTC 2008-12-04)
Аудио #1
Идентификатор : 1
Формат : AC-3
Формат/Информация : Audio Coding 3
Расширение режима : CM (complete main)
Параметр Endianness формата : Big
Идентификатор кодека : 2000
Продолжительность : 1 ч. 18 м.
Вид битрейта : Постоянный
Битрейт : 384 Кбит/сек
Каналы : 6 каналов
Расположение каналов : Front: L C R, Side: L R, LFE
Частота : 48,0 КГц
Битовая глубина : 16 бит
Метод сжатия : С потерями
Размер потока : 217 Мбайт (15%)
Выравнивание : Разделение по промежуткам
Продолжительность промежутка : 42 мс. (1,00 видеокадр)
Время предзагрузки промежутка : 500 мс.
Аудио #2
Идентификатор : 2
Формат : AC-3
Формат/Информация : Audio Coding 3
Расширение режима : CM (complete main)
Параметр Endianness формата : Big
Идентификатор кодека : 2000
Продолжительность : 1 ч. 18 м.
Вид битрейта : Постоянный
Битрейт : 384 Кбит/сек
Каналы : 6 каналов
Расположение каналов : Front: L C R, Side: L R, LFE
Частота : 48,0 КГц
Битовая глубина : 16 бит
Метод сжатия : С потерями
Размер потока : 217 Мбайт (15%)
Выравнивание : Разделение по промежуткам
Продолжительность промежутка : 42 мс. (1,00 видеокадр)
Время предзагрузки промежутка : 500 мс.

Скриншот с названием фильма

Скриншоты

Скачать

Скачать торрент!

Как скачивать? · Что такое торрент? · Рейтинг и ограничения

Сайт не распространяет и не хранит электронные версии произведений, а лишь предоставляет доступ к создаваемому пользователями каталогу ссылок на торрент-файлы, которые содержат только списки хеш-сумм

[Профиль] [ЛС]
Показать сообщения:    
Ответить на тему

Текущее время: Сегодня 13:42

Часовой пояс: GMT + 4



Вы не можете начинать темы
Вы не можете отвечать на сообщения
Вы не можете редактировать свои сообщения
Вы не можете удалять свои сообщения
Вы не можете голосовать в опросах
Вы не можете прикреплять файлы к сообщениям
Вы не можете скачивать файлы