Белый как снег / Blanc comme neige (Кристоф Бланк / Christophe Blanc) [2010, Франция, Бельгия, триллер, BDRemux 1080p] DVO (НТВ+) + DVO + Original (Fre)

Ответить на тему
 
Автор Сообщение

user ®

Стаж: 7 лет 7 месяцев

Сообщений: 20008

Пост Пост: #1 от 01-Дек-2013 16:00

[Цитировать]

Белый как снег / Blanc comme neige

-
-Страна: Франция, Бельгия
Студия: Angoa-Agicoa, Banque Postale Image 2
Жанр: триллер
Год выпуска: 2010
Продолжительность: 01:34:18--Перевод 1: Профессиональный (двухголосый закадровый) НТВ+
Перевод 2: Любительский (двухголосый закадровый)
Cубтитры: нет
Оригинальная аудиодорожка: французский--Режиссер: Кристоф Бланк / Christophe Blanc
В ролях: Франсуа Клюзе, Оливье Гурме, Джонатан Цассаи, Боли Ланнерс, Луиз Бургуэн, Кай Лехтинен--Описание: У Максима есть все, чтобы быть счастливым: он возглавляет крупную фирму по продаже дорогих автомобилей, женат на очаровательной молодой девушке и живет на удобной вилле. Все идиллия заканчивается со смертью его компаньона, которого убили преступники. Разумно осознавая, что следующий на очереди он, Максим зовет на помощь своих братьев. Однако их вмешательство превращает дело в полное фиаско, и положение Максима становится все более запутанным и опасным…--imdb | kinopoisk | Сэмпл--Тип релиза: BDRemux 1080p [White.as.Snow.Wie.weit.wuerdest.du.gehen.2010.DUAL.COMPLETE.BLURAY-SharpHD]
Контейнер: MKV
Видео: MPEG-4 AVC / 21986 kbps / 1920x1080 / 24 fps / 16:9 / High Profile 4.1
Аудио 1: Russian AC3 / 2.0 / 48 kHz / 192 kbps / 16 bits |DVO, НТВ+|
Аудио 2: Russian AC3 / 5.1 / 48 kHz / 448 kbps / 16 bits |DVO|
Аудио 3: French DTS-HD Master Audio / 5.1 / 48 kHz / 1810 kbps / 16 bits (DTS Core: 5.1 / 48 kHz / 1509 kbps / 16-bit / DN -4dB) |original|

MediaInfo

Общее
Уникальный идентификатор                 : 191693304976965970028408888035746192923 (0x9036C9A16C490F4A89921E06C9BF1E1B)
Полное имя                               : G:\HD\Белый как снег.2010.Blu-Ray.Remux.(1080p).mkv
Формат                                   : Matroska
Версия формата                           : Version 2
Размер файла                             : 16,1 Гбайт
Продолжительность                        : 1 ч. 34 м.
Режим общего битрейта                    : Переменный
Общий поток                              : 24,4 Мбит/сек
Дата кодирования                         : UTC 2013-11-30 16:38:16
Программа кодирования                    : mkvmerge v5.8.0 ('No Sleep / Pillow') built on Sep  2 2012 15:37:04
Библиотека кодирования                   : libebml v1.2.3 + libmatroska v1.3.0
Attachment                               : Yes
Видео
Идентификатор                            : 1
Формат                                   : AVC
Формат/Информация                        : Advanced Video Codec
Профиль формата                          : High@L4.1
Параметр CABAC формата                   : Да
Параметр ReFrames формата                : 4 кадра
Параметр GOP формата                     : M=3, N=24
Режим смешивания                         : Container profile=Unknown@0.0
Идентификатор кодека                     : V_MPEG4/ISO/AVC
Продолжительность                        : 1 ч. 34 м.
Вид битрейта                             : Переменный
Максимальный битрейт                     : 37,0 Мбит/сек
Ширина                                   : 1920 пикселей
Высота                                   : 1080 пикселей
Соотношение сторон                       : 16:9
Режим частоты кадров                     : Постоянный
Частота кадров                           : 24,000 кадра/сек
Стандарт вещания                         : NTSC
Цветовое пространство                    : YUV
Субдискретизация насыщенности            : 4:2:0
Битовая глубина                          : 8 бит
Тип развёртки                            : Прогрессивная
Default                                  : Да
Forced                                   : Нет
Основные цвета                           : BT.709
Характеристики трансфера                 : BT.709
Коэффициенты матрицы                     : BT.709
Аудио #1
Идентификатор                            : 2
Формат                                   : AC-3
Формат/Информация                        : Audio Coding 3
Расширение режима                        : CM (complete main)
Параметр Endianness формата              : Big
Идентификатор кодека                     : A_AC3
Продолжительность                        : 1 ч. 34 м.
Вид битрейта                             : Постоянный
Битрейт                                  : 192 Кбит/сек
Каналы                                   : 2 канала
Расположение каналов                     : Front: L R
Частота                                  : 48,0 КГц
Битовая глубина                          : 16 бит
Метод сжатия                             : С потерями
Размер потока                            : 130 Мбайт (1%)
Заголовок                                : DVO, НТВ+
Язык                                     : Russian
Default                                  : Да
Forced                                   : Нет
Аудио #2
Идентификатор                            : 3
Формат                                   : AC-3
Формат/Информация                        : Audio Coding 3
Расширение режима                        : CM (complete main)
Параметр Endianness формата              : Big
Идентификатор кодека                     : A_AC3
Продолжительность                        : 1 ч. 34 м.
Вид битрейта                             : Постоянный
Битрейт                                  : 448 Кбит/сек
Каналы                                   : 6 каналов
Расположение каналов                     : Front: L C R, Side: L R, LFE
Частота                                  : 48,0 КГц
Битовая глубина                          : 16 бит
Метод сжатия                             : С потерями
Размер потока                            : 302 Мбайт (2%)
Заголовок                                : DVO
Язык                                     : Russian
Default                                  : Нет
Forced                                   : Нет
Аудио #3
Идентификатор                            : 4
Формат                                   : DTS
Формат/Информация                        : Digital Theater Systems
Профиль формата                          : MA / Core
Режим                                    : 16
Параметр Endianness формата              : Big
Идентификатор кодека                     : A_DTS
Продолжительность                        : 1 ч. 34 м.
Вид битрейта                             : Переменный
Битрейт                                  : Неизвестно / 1509 Кбит/сек
Каналы                                   : 6 каналов
Расположение каналов                     : Front: L C R, Side: L R, LFE
Частота                                  : 48,0 КГц
Битовая глубина                          : 16 бит
Метод сжатия                             : Без потерь / Lossy
Язык                                     : French
Default                                  : Нет
Forced                                   : Нет
Меню
00:00:00.000                             : :Chapter 01
00:06:16.500                             : :Chapter 02
00:12:33.375                             : :Chapter 03
00:20:00.541                             : :Chapter 04
00:27:00.458                             : :Chapter 05
00:34:39.875                             : :Chapter 06
00:44:51.750                             : :Chapter 07
00:53:34.000                             : :Chapter 08
01:04:27.166                             : :Chapter 09
01:13:32.166                             : :Chapter 10
01:21:38.541                             : :Chapter 11
01:30:27.750                             : :Chapter 12

Скриншоты


Дополнительно

Русские дороги взяты с [url=http://***/forum/viewtopic.php?t=3105290]этой раздачи[/url], thx: Ko_Ant4 и с [url=http://***/forum/viewtopic.php?t=4150937]этой раздачи[/url], thx: vasapel
Скачать

Скачать торрент!

Как скачивать? · Что такое торрент? · Рейтинг и ограничения

Сайт не распространяет и не хранит электронные версии произведений, а лишь предоставляет доступ к создаваемому пользователями каталогу ссылок на торрент-файлы, которые содержат только списки хеш-сумм

[Профиль] [ЛС]
Показать сообщения:    
Ответить на тему

Текущее время: Сегодня 11:49

Часовой пояс: GMT + 4



Вы не можете начинать темы
Вы не можете отвечать на сообщения
Вы не можете редактировать свои сообщения
Вы не можете удалять свои сообщения
Вы не можете голосовать в опросах
Вы не можете прикреплять файлы к сообщениям
Вы не можете скачивать файлы