Пушки, телки и азарт / Guns, Girls and Gambling (Майкл Уинник / Michael Winnick) [2011, США, триллер, криминал, комедия, BDRip 720p] Dub + VO + Original Eng

Ответить на тему
 
Автор Сообщение

user ®

Стаж: 7 лет 7 месяцев

Сообщений: 20008

Пост Пост: #1 от 01-Дек-2013 16:00

[Цитировать]

Пушки, телки и азарт / Guns, Girls and Gambling- Страна: США
Жанр: триллер, криминал, комедия
Год выпуска: 2011
Продолжительность: 01:29:21
Перевод 1: Профессиональный (дублированный)
Перевод 2: Любительский (одноголосый)
Cубтитры: нет
Оригинальная аудиодорожка: английский-Режиссер: Майкл Уинник / Michael Winnick
В ролях: Кристиан Слэйтер, Меган Парк, Хелена Мэттссон, Пауэрс Бут, Гордон Тутусис, Гари Олдман, Мэттью Уиллиг, Дейн Кук, Сэм Трэммелл, Джефф Фэйи-Описание: Джону Смиту не очень-то везло в последнее время, но он верил в народную мудрость, что жизнь — это тельняшка, и за черной полосой обязательно последует белая. Однако на этот раз мудрость не сработала. Джон Смит оказался в плохое время в плохом месте. Из казино, где он пытался поправить свое финансовое положение, во время игры в покер украли бесценный индейский артефакт. Как гласит предание, эта священная маска легендарного воина племени сиу способна подарить своему обладателю удачу и бессмертие. Охотников за счастьем подсобралось немало, и все они стопроцентно уверены, что вор — Джон Смит. Разношерстная компания — двойники Элвиса Пресли, индейцы, ковбои, блондинка-киллерша, коррумпированные полицейские, проститутка и даже злобный карлик — бросается за ним в погоню…
-
-Качество видео: BDRip 720p
Контейнер: MKV
Видео: x.264, 1280х720, 5459 Kbps, 23.976 fps
Аудио 1: AC3, 48000 Hz, 384 kbps, 5.1 channels - Dub
Аудио 2: AC3, 48000 Hz, 384 kbps, 5.1 channels - VO
Аудио 3: DTS, 48000 Hz, 1510 kbps, 5.1 channels - Eng
-

Отчёт MediaInfo

Format                           : Matroska
Format version                   : Version 2
File size                        : 4.83 GiB
Duration                         : 1h 29mn
Overall bit rate                 : 7 736 Kbps
Movie name                       : Пушки, телки и азарт / Guns, Girls and Gambling (2011) BDRip 720p
Encoded date                     : UTC 2013-11-16 18:32:57
Writing application              : mkvmerge v6.5.0 ('Isn't she lovely') built on Oct 20 2013 12:50:05
Writing library                  : libebml v1.3.0 + libmatroska v1.4.1
Attachment                       : Yes / Yes / Yes
Video
ID                               : 1
Format                           : AVC
Format/Info                      : Advanced Video Codec
Format profile                   : High@L4.1
Format settings, CABAC           : Yes
Format settings, ReFrames        : 5 frames
Codec ID                         : V_MPEG4/ISO/AVC
Duration                         : 1h 29mn
Bit rate                         : 5 459 Kbps
Width                            : 1 280 pixels
Height                           : 720 pixels
Display aspect ratio             : 16:9
Frame rate                       : 23.976 fps
Color space                      : YUV
Chroma subsampling               : 4:2:0
Bit depth                        : 8 bits
Scan type                        : Progressive
Bits/(Pixel*Frame)               : 0.247
Stream size                      : 3.31 GiB (69%)
Writing library                  : x264 core 128 r2216 198a7ea
Encoding settings                : cabac=1 / ref=5 / deblock=1:0:0 / analyse=0x3:0x133 / me=umh / subme=8 / psy=1 / psy_rd=1.00:0.00 / mixed_ref=1 / me_range=16 / chroma_me=1 / trellis=1 / 8x8dct=1 / cqm=0 / deadzone=21,11 / fast_pskip=0 / chroma_qp_offset=-2 / threads=12 / lookahead_threads=2 / sliced_threads=0 / nr=0 / decimate=1 / interlaced=0 / bluray_compat=0 / constrained_intra=0 / bframes=3 / b_pyramid=2 / b_adapt=1 / b_bias=0 / direct=1 / weightb=1 / open_gop=0 / weightp=2 / keyint=250 / keyint_min=23 / scenecut=40 / intra_refresh=0 / rc_lookahead=40 / rc=2pass / mbtree=1 / bitrate=5459 / ratetol=1.0 / qcomp=0.60 / qpmin=0 / qpmax=69 / qpstep=4 / cplxblur=20.0 / qblur=0.5 / ip_ratio=1.40 / aq=1:1.00
Language                         : English
Default                          : Yes
Forced                           : No
Audio #1
ID                               : 2
Format                           : AC-3
Format/Info                      : Audio Coding 3
Mode extension                   : CM (complete main)
Codec ID                         : A_AC3
Duration                         : 1h 29mn
Bit rate mode                    : Constant
Bit rate                         : 384 Kbps
Channel(s)                       : 6 channels
Channel positions                : Front: L C R, Side: L R, LFE
Sampling rate                    : 48.0 KHz
Bit depth                        : 16 bits
Compression mode                 : Lossy
Stream size                      : 246 MiB (5%)
Title                            : DUB
Language                         : Russian
Default                          : Yes
Forced                           : No
Audio #2
ID                               : 3
Format                           : AC-3
Format/Info                      : Audio Coding 3
Mode extension                   : CM (complete main)
Codec ID                         : A_AC3
Duration                         : 1h 29mn
Bit rate mode                    : Constant
Bit rate                         : 384 Kbps
Channel(s)                       : 6 channels
Channel positions                : Front: L C R, Side: L R, LFE
Sampling rate                    : 44.1 KHz
Bit depth                        : 16 bits
Compression mode                 : Lossy
Stream size                      : 246 MiB (5%)
Title                            : VO
Language                         : Russian
Default                          : No
Forced                           : No
Audio #3
ID                               : 4
Format                           : DTS
Format/Info                      : Digital Theater Systems
Codec ID                         : A_DTS
Duration                         : 1h 29mn
Bit rate mode                    : Constant
Bit rate                         : 1 510 Kbps
Channel(s)                       : 6 channels
Channel positions                : Front: L C R, Side: L R, LFE
Sampling rate                    : 48.0 KHz
Bit depth                        : 16 bits
Compression mode                 : Lossy
Delay relative to video          : 11ms
Stream size                      : 966 MiB (20%)
Title                            : English
Language                         : English
Default                          : No
Forced                           : No
Menu
00:00:00.000                     : en:Start
00:09:57.597                     : en:Poker
00:19:16.947                     : en:Stranded
00:24:10.240                     : en:Elvis' House
00:31:48.406                     : en:Little Elvis
00:35:04.602                     : en:Door 1825 1/2
00:45:43.407                     : en:The Mask
00:51:38.970                     : en:John Smith
00:57:00.750                     : en:The Plan
01:07:09.984                     : en:Station 12
01:17:53.502                     : en:What Happened
01:25:14.859                     : en:Credits

-

Скриншоты


Резервные скриншоты


Скачать

Скачать торрент!

Как скачивать? · Что такое торрент? · Рейтинг и ограничения

Сайт не распространяет и не хранит электронные версии произведений, а лишь предоставляет доступ к создаваемому пользователями каталогу ссылок на торрент-файлы, которые содержат только списки хеш-сумм

[Профиль] [ЛС]
Показать сообщения:    
Ответить на тему

Текущее время: Сегодня 09:57

Часовой пояс: GMT + 4



Вы не можете начинать темы
Вы не можете отвечать на сообщения
Вы не можете редактировать свои сообщения
Вы не можете удалять свои сообщения
Вы не можете голосовать в опросах
Вы не можете прикреплять файлы к сообщениям
Вы не можете скачивать файлы