Восторг Палуза / Тотальное вознесение / Rapture-Palooza (Пол Миддледитч / Paul Middleditch) [2013, США, фэнтези, комедия, BDRip 720p] VO + Original (Eng) + Sub (rus, eng)

Ответить на тему
 
Автор Сообщение

user ®

Стаж: 7 лет 7 месяцев

Сообщений: 20008

Пост Пост: #1 от 01-Дек-2013 16:00

[Цитировать]

Восторг Палуза / Тотальное вознесение / Rapture-Palooza- - Страна: США
Жанр: фэнтези, комедия
Год выпуска: 2013
Продолжительность: 01:24:52
Перевод: Одноголосый закадровый [den904]
Cубтитры: русские, английские
Оригинальная аудиодорожка: английский-Режиссер: Пол Миддледитч / Paul Middleditch
В ролях: Анна Кендрик, Кен Жонг, Роб Кордри, Джон Фрэнсис Дейли, Крэйг Робинсон, Томас Леннон, Тайлер Лабайн, Роб Хюбел, Пол Шеер, Кэлам Уорси, Ана Гастейер, Джесси Камачо-Описание: Главные герои картины - молодая парочка, Линдси и ее дружочек Бен. С тех пор, как миллионы людей оказались просто на небесах, их души затерялись на окраине Сиэтла. Теперь каждый день для Линдси и Бена приносит особые сюрпризы - то кровавые ливни хлещут по стеклу их автомобиля, то говорящая саранча стремительно носится вокруг. Но эти досадные моменты - не самые опасные в их нынешнем положении. Настоящим испытанием становится чернокожий Антихрист, который не только селится рядом с молодой парой, но и пытается поухаживать за Линдси. Как же помешать Антихристу овладеть сердцем порядочной и чистой Линдси? Этот вопрос теперь волнует многих - Бена, его семью, друзей и даже флегматичного соседа-зомби. Они готовы объединиться, чтобы противостоять неуемному Антихристу, ведь в результате своих усилий могут спасти не только бедняжку Линдси, но и еще оставшийся в живых мир.
- -
Качество видео: BDRip 720p - DON
Контейнер: MKV
Видео: x.264, 1280х544, 8355 Kbps, 23.976 fps
Аудио 1: AC3, 48000 Hz, 192 kbps, 2.0 channels - VO
Аудио 2: AC3, 48000 Hz, 640 kbps, 5.1 channels - Eng
Cубтитры: SRT - русские (с матом), английские
-

Скриншоты


Резервные скриншоты



-

Отчёт MediaInfo

Format                           : Matroska
Format version                   : Version 4 / Version 2
File size                        : 5.56 GiB
Duration                         : 1h 24mn
Overall bit rate                 : 9 374 Kbps
Movie name                       : Восторг Палуза / Rapture-Palooza (2013) BDRip 720p
Encoded date                     : UTC 2013-12-01 04:25:01
Writing application              : mkvmerge v6.5.0 ('Isn't she lovely') built on Oct 20 2013 12:50:05
Writing library                  : libebml v1.3.0 + libmatroska v1.4.1
Attachment                       : Yes
Video
ID                               : 1
Format                           : AVC
Format/Info                      : Advanced Video Codec
Format profile                   : High@L4.1
Format settings, CABAC           : Yes
Format settings, ReFrames        : 12 frames
Codec ID                         : V_MPEG4/ISO/AVC
Duration                         : 1h 24mn
Bit rate                         : 8 355 Kbps
Width                            : 1 280 pixels
Height                           : 544 pixels
Display aspect ratio             : 2.35:1
Frame rate                       : 23.976 fps
Color space                      : YUV
Chroma subsampling               : 4:2:0
Bit depth                        : 8 bits
Scan type                        : Progressive
Bits/(Pixel*Frame)               : 0.500
Stream size                      : 4.95 GiB (89%)
Writing library                  : x264 core 133 r2334 a3ac64b
Encoding settings                : cabac=1 / ref=12 / deblock=1:-3:-3 / analyse=0x3:0x133 / me=tesa / subme=10 / psy=1 / psy_rd=0.95:0.00 / mixed_ref=1 / me_range=32 / chroma_me=1 / trellis=2 / 8x8dct=1 / cqm=0 / deadzone=21,11 / fast_pskip=0 / chroma_qp_offset=-2 / threads=12 / lookahead_threads=2 / sliced_threads=0 / nr=0 / decimate=1 / interlaced=0 / bluray_compat=0 / constrained_intra=0 / bframes=8 / b_pyramid=2 / b_adapt=2 / b_bias=0 / direct=3 / weightb=1 / open_gop=0 / weightp=2 / keyint=241 / keyint_min=23 / scenecut=40 / intra_refresh=0 / rc_lookahead=60 / rc=crf / mbtree=0 / crf=14.7 / qcomp=0.70 / qpmin=0 / qpmax=69 / qpstep=4 / vbv_maxrate=50000 / vbv_bufsize=62500 / crf_max=0.0 / nal_hrd=none / ip_ratio=1.40 / pb_ratio=1.30 / aq=1:0.80 / zones=113342,122089,q=17
Language                         : English
Default                          : Yes
Forced                           : No
Audio #1
ID                               : 2
Format                           : AC-3
Format/Info                      : Audio Coding 3
Mode extension                   : CM (complete main)
Codec ID                         : A_AC3
Duration                         : 1h 24mn
Bit rate mode                    : Constant
Bit rate                         : 192 Kbps
Channel(s)                       : 2 channels
Channel positions                : Front: L R
Sampling rate                    : 48.0 KHz
Bit depth                        : 16 bits
Compression mode                 : Lossy
Stream size                      : 117 MiB (2%)
Title                            : VO - den904
Language                         : Russian
Default                          : Yes
Forced                           : No
Audio #2
ID                               : 3
Format                           : AC-3
Format/Info                      : Audio Coding 3
Mode extension                   : CM (complete main)
Codec ID                         : A_AC3
Duration                         : 1h 24mn
Bit rate mode                    : Constant
Bit rate                         : 640 Kbps
Channel(s)                       : 6 channels
Channel positions                : Front: L C R, Side: L R, LFE
Sampling rate                    : 48.0 KHz
Bit depth                        : 16 bits
Compression mode                 : Lossy
Stream size                      : 389 MiB (7%)
Title                            : Original
Language                         : English
Default                          : No
Forced                           : No
Text #1
ID                               : 4
Format                           : UTF-8
Codec ID                         : S_TEXT/UTF8
Codec ID/Info                    : UTF-8 Plain Text
Title                            : uncensored
Language                         : Russian
Default                          : No
Forced                           : No
Text #2
ID                               : 5
Format                           : UTF-8
Codec ID                         : S_TEXT/UTF8
Codec ID/Info                    : UTF-8 Plain Text
Language                         : English
Default                          : No
Forced                           : No
Menu
00:00:00.000                     : en:00:00:00.000
00:07:31.117                     : en:00:07:31.117
00:12:37.465                     : en:00:12:37.465
00:19:26.832                     : en:00:19:26.832
00:26:53.529                     : en:00:26:53.529
00:34:07.128                     : en:00:34:07.128
00:38:48.660                     : en:00:38:48.660
00:44:37.842                     : en:00:44:37.842
00:53:45.013                     : en:00:53:45.013
01:04:40.210                     : en:01:04:40.210
01:12:55.204                     : en:01:12:55.204
01:18:46.764                     : en:01:18:46.764

-
-

запасной постер

Скачать

Скачать торрент!

Как скачивать? · Что такое торрент? · Рейтинг и ограничения

Сайт не распространяет и не хранит электронные версии произведений, а лишь предоставляет доступ к создаваемому пользователями каталогу ссылок на торрент-файлы, которые содержат только списки хеш-сумм

[Профиль] [ЛС]
Показать сообщения:    
Ответить на тему

Текущее время: Сегодня 06:01

Часовой пояс: GMT + 4



Вы не можете начинать темы
Вы не можете отвечать на сообщения
Вы не можете редактировать свои сообщения
Вы не можете удалять свои сообщения
Вы не можете голосовать в опросах
Вы не можете прикреплять файлы к сообщениям
Вы не можете скачивать файлы