Кровавая дама / Dame de Sang (Алексис Лекей / Alexis Lecaye) [2013, Франция, Триллер, детектив, HDTVRip] DVO (ТПО Ред Медиа)

Ответить на тему
 
Автор Сообщение

user ®

Стаж: 7 лет 7 месяцев

Сообщений: 20008

Пост Пост: #1 от 01-Дек-2013 12:50

[Цитировать]

Кровавая дама / Dame de Sang
Страна: Франция
Студия: France 2 (FR2)
Жанр: Триллер, детектив
Год выпуска: 2013
Продолжительность: 01:43:39
Перевод: Профессиональный (двухголосый закадровый) ТПО Ред Медиа
Cубтитры: нет
Оригинальная аудиодорожка: нет
Режиссер: Алексис Лекей / Alexis Lecaye
В ролях: Тьерри Годар, Жан-Туссен Бернард, Мюриель Комбо, Валери Декобер-Корецки, Чарли Фуке, Николас Гоб, Софи-Шарлотт Юссон, Энн Лорье, Клара Понсо, Эрик Савен
Описание: Мартен должен попытаться вспомнить, что он делал, перед тем как проснулся голым рядом с неизвестной, глубокой ночью, в квартире, которую он не видел никогда. Инцидент, нарушивший всё, становится тревожным, когда та же постель, фокусирует внимание следователей двумя днями позже. На этот раз, это - труп женщины, которая там оказалась. Мартен не имеет ничего общего с этим делом, но что делать, если оружие преступления принадлежит ему? Конечно, он уверяет, что оно у него было украдено...

IMDB
Качество видео: HDTVRip
Формат видео: AVI
Видео: Xvid 720x400 (16:9) 25.0fps Bit rate 1775Kbps b/p 0.247
Аудио: AC3 48.0KHz 2ch 192 Kbps

MediaInfo

Общее
Полное имя : E:\torrent\Krovavaya.Dama_HDTVRip.avi
Формат : AVI
Формат/Информация : Audio Video Interleave
Размер файла : 1,43 Гбайт
Продолжительность : 1 ч. 43 м.
Общий поток : 1977 Кбит/сек
Библиотека кодирования : VirtualDub build 32842/release
Видео
Идентификатор : 0
Формат : MPEG-4 Visual
Профиль формата : Advanced Simple@L5
Параметр BVOP формата : 2
Параметр QPel формата : Нет
Параметр GMC формата : Без точки перехода
Параметр матрицы формата : Default (H.263)
Идентификатор кодека : XVID
Идентификатор кодека/Подсказка : XviD
Продолжительность : 1 ч. 43 м.
Битрейт : 1775 Кбит/сек
Ширина : 720 пикселей
Высота : 400 пикселей
Соотношение сторон : 16:9
Частота кадров : 25,000 кадров/сек
Цветовое пространство : YUV
Субдискретизация насыщенности : 4:2:0
Битовая глубина : 8 бит
Тип развёртки : Прогрессивная
Метод сжатия : С потерями
Бит/(Пиксели*Кадры) : 0.247
Размер потока : 1,29 Гбайт (90%)
Библиотека кодирования : XviD 1.2.1 (UTC 2008-12-04)
Аудио
Идентификатор : 1
Формат : AC-3
Формат/Информация : Audio Coding 3
Расширение режима : CM (complete main)
Параметр Endianness формата : Big
Идентификатор кодека : 2000
Продолжительность : 1 ч. 43 м.
Вид битрейта : Постоянный
Битрейт : 192 Кбит/сек
Каналы : 2 канала
Расположение каналов : Front: L R
Частота : 48,0 КГц
Битовая глубина : 16 бит
Метод сжатия : С потерями
Размер потока : 142 Мбайт (10%)
Выравнивание : Соединение по промежуткам
Продолжительность промежутка : 40 мс. (1,00 видеокадр)
Время предзагрузки промежутка : 512 мс.

Скриншот c названием фильма

Скриншоты

Скачать

Скачать торрент!

Как скачивать? · Что такое торрент? · Рейтинг и ограничения

Сайт не распространяет и не хранит электронные версии произведений, а лишь предоставляет доступ к создаваемому пользователями каталогу ссылок на торрент-файлы, которые содержат только списки хеш-сумм

[Профиль] [ЛС]
Показать сообщения:    
Ответить на тему

Текущее время: Сегодня 06:57

Часовой пояс: GMT + 4



Вы не можете начинать темы
Вы не можете отвечать на сообщения
Вы не можете редактировать свои сообщения
Вы не можете удалять свои сообщения
Вы не можете голосовать в опросах
Вы не можете прикреплять файлы к сообщениям
Вы не можете скачивать файлы