Слепой детектив / Blind Detective / Man Tam (Джонни То / Johnnie To) [2013, Гонконг, триллер, детектив, комедия, драма, HDRip] DVO [GREEN TEA]

Ответить на тему
 
Автор Сообщение

user ®

Стаж: 11 лет

Сообщений: 15151

Пост Пост: #1 от 30-Ноя-2013 21:55

[Цитировать]

Слепой детектив
Blind Detective / Man Tam

Страна: Гонконг
Жанр: триллер, детектив, комедия, драма
Год выпуска: 2013
Продолжительность: 02:09:37-Перевод: Любительский (двухголосый закадровый) Ольга Гринтиева и Константин Романов [Сэмпл]
Cубтитры: нет
Оригинальная аудиодорожка: нет-Режиссер: Джонни То / Johnnie To
В ролях: Энди Лау / Сэмми Чэн / Гао Юаньюань / Тао Го / Филип Кеунг / Сует Лам и др.-Описание: Он — талантливый детектив, вынужденный уйти в отставку после того, как во время выполнения задания потерял зрение. С тех пор он зарабатывает на жизнь тем, что распутывает дела, с которыми не может справиться полиция. Она — многообещающий полицейский агент, терзаемая чувством вины из-за пропажи подруги детства. Потрясенная тем, с каким блеском он раскрывает дело, она просит его помочь разыскать ее подругу. Он соглашается… по только ему известным причинам.-Доп. информация: Доп. информация: релиз группы GREEN TEA
Перевод: Калинин Игорь
Тайминг: Юлия Вредная и Геннадий Дахно
Работа со звуком: Ольга Гринтиева-Качество видео: HDRip
Формат видео: AVI
Видео: 720x304, 1116 Kbps, 24 fps
Аудио: MP3, 192 кб/с, 2 канала, 48 Гц

MediaInfo

Формат : AVI
Формат/Информация : Audio Video Interleave
Размер файла : 1,19 Гбайт
Продолжительность : 2 ч. 9 м.
Общий поток : 1316 Кбит/сек
Библиотека кодирования : VirtualDub build 32842/release
Видео
Идентификатор : 0
Формат : xvid
Идентификатор кодека : xvid
Продолжительность : 2 ч. 9 м.
Битрейт : 1115 Кбит/сек
Ширина : 720 пикселей
Высота : 304 пикселя
Соотношение сторон : 2,35:1
Частота кадров : 24,000 кадра/сек
Бит/(Пиксели*Кадры) : 0.212
Размер потока : 1,01 Гбайт (85%)
Аудио
Идентификатор : 1
Формат : MPEG Audio
Версия формата : Version 1
Профиль формата : Layer 3
Режим : Joint stereo
Идентификатор кодека : 55
Идентификатор кодека/Подсказка : MP3
Продолжительность : 2 ч. 9 м.
Вид битрейта : Постоянный
Битрейт : 192 Кбит/сек
Каналы : 2 канала
Частота : 48,0 КГц
Метод сжатия : С потерями
Размер потока : 178 Мбайт (15%)
Выравнивание : Разделение по промежуткам
Продолжительность промежутка : 42 мс. (1,00 видеокадр)
Время предзагрузки промежутка : 500 мс.
Скачать

Скачать торрент! Слепой детектив / Blind Detective / Man Tam (Джонни То / Johnnie To) [2013, Гонконг, триллер, детектив, комедия, драма, HDRip] DVO [GREEN TEA]

Как скачивать? · Что такое торрент? · Рейтинг и ограничения

Сайт не распространяет и не хранит электронные версии произведений, а лишь предоставляет доступ к создаваемому пользователями каталогу ссылок на торрент-файлы, которые содержат только списки хеш-сумм

[Профиль] [ЛС]
Показать сообщения:    
Ответить на тему

Текущее время: Сегодня 18:20

Часовой пояс: GMT + 4



Вы не можете начинать темы
Вы не можете отвечать на сообщения
Вы не можете редактировать свои сообщения
Вы не можете удалять свои сообщения
Вы не можете голосовать в опросах
Вы не можете прикреплять файлы к сообщениям
Вы не можете скачивать файлы