Иллюзия обмана / Now You See Me (Луи Летерье / Louis Leterrier) [2013, Франция, США, Триллер, криминал, BDRip] Dub

Ответить на тему
 
Автор Сообщение

user ®

Стаж: 7 лет 7 месяцев

Сообщений: 20008

Пост Пост: #1 от 30-Ноя-2013 21:55

[Цитировать]

Иллюзия обмана / Now You See Me
Страна: Франция, США
Жанр: Триллер, криминал
Год выпуска: 2013
Продолжительность: 01:55:21
Перевод: Профессиональный (дублированный)
Cубтитры: нет
Режиссер: Луи Летерье / Louis Leterrier
В ролях: Джесси Айзенберг, Дэйв Франко, Морган Фриман, Марк Руффало, Айла Фишер, Мелани Лоран, Вуди Харрельсон, Майкл Кейн, Элиас Котеас, Коммон
Описание: Команда лучших иллюзионистов мира проворачивает дерзкие ограбления прямо во время своих шоу, играя в кошки-мышки с агентами ФБР.
Доп. информация: Премьера (мир) ........... 7 июня 2013
Премьера (РФ) ............ 6 июня 2013, «Централ Партнершип»
Сэмпл: http://multi-up.com/927866
Релиз от:
Качество видео: BDRip
Формат видео: AVI
Исходник : "Now You See Me" 2013 1080p Blu-ray AVC DTS-HD MA 7.1-HDWinG Dub
Видео: XviD, 720x304 (2.37:1), 23.976 fps, XviD MPEG-4 ~1812 kbps avg, 0.34 bit/pixel
Аудио: AC3 ,48 kHz, AC3 Dolby Digital, 3/2 (L,C,R,l,r) + LFE ch, ~448.00 kbps avg |Dub|

MediaInfo

General
Complete name : D:\Now_You_See_Me.avi
Format : AVI
Format/Info : Audio Video Interleave
Format profile : OpenDML
File size : 2.19 GiB
Duration : 1h 55mn
Overall bit rate : 2 715 Kbps
Movie name : Now You See Me / Theatrical Cut (2013)
Director : Vaippp
Genre : Thriller
Writing application : VirtualDubModRus 1.5.10.2 (build 2542/release)
Writing library : VirtualDubMod build 2542/release
Original source form/Name : Movie
Copyright : HQ-ViDEO
Comment : BDRip
Video #0
ID : 0
Format : MPEG-4 Visual
Format profile : Advanced Simple@L5
Format settings, BVOP : 2
Format settings, QPel : No
Format settings, GMC : No warppoints
Format settings, Matrix : Custom
Codec ID : XVID
Codec ID/Hint : XviD
Duration : 1h 55mn
Bit rate : 1 801 Kbps
Width : 720 pixels
Height : 304 pixels
Display aspect ratio : 2.35:1
Frame rate : 23.976 fps
Color space : YUV
Chroma subsampling : 4:2:0
Bit depth : 8 bits
Scan type : Progressive
Compression mode : Lossy
Bits/(Pixel*Frame) : 0.343
Stream size : 1.45 GiB (66%)
Writing library : XviD 73
Audio #1
ID : 1
Format : AC-3
Format/Info : Audio Coding 3
Mode extension : CM (complete main)
Format settings, Endianness : Big
Codec ID : 2000
Duration : 1h 55mn
Bit rate mode : Constant
Bit rate : 448 Kbps
Channel(s) : 6 channels
Channel positions : Front: L C R, Side: L R, LFE
Sampling rate : 48.0 KHz
Bit depth : 16 bits
Compression mode : Lossy
Stream size : 370 MiB (17%)
Alignment : Split accross interleaves
Interleave, duration : 42 ms (1.00 video frame)
Interleave, preload duration : 500 ms

Скриншоты





Скачать

Скачать торрент!

Как скачивать? · Что такое торрент? · Рейтинг и ограничения

Сайт не распространяет и не хранит электронные версии произведений, а лишь предоставляет доступ к создаваемому пользователями каталогу ссылок на торрент-файлы, которые содержат только списки хеш-сумм

[Профиль] [ЛС]
Показать сообщения:    
Ответить на тему

Текущее время: Сегодня 21:39

Часовой пояс: GMT + 4



Вы не можете начинать темы
Вы не можете отвечать на сообщения
Вы не можете редактировать свои сообщения
Вы не можете удалять свои сообщения
Вы не можете голосовать в опросах
Вы не можете прикреплять файлы к сообщениям
Вы не можете скачивать файлы