Прохожий №3 / Радуга / Passerby #3 / Reinbou (Шин Су-Вон / Shin Su Won) [2010, Южная Корея, Драма, Комедия, DVDRip] VO D.I.M.

Ответить на тему
 
Автор Сообщение

user ®

Стаж: 13 лет

Сообщений: 15071

Пост Пост: #1 от 30-Ноя-2013 18:45

[Цитировать]

Прохожий №3 / Радуга / Passerby #3 / Reinbou
Страна: Южная Корея
Жанр: Драма, Комедия
Год выпуска: 2010
Продолжительность: 1:31:02
Перевод: Одноголосый закадровый D.I.M.
Cубтитры: нет
Режиссер: Шин Су-Вон / Shin Su Won
В ролях: Пак Хён-Ён / Park Hyun-young
Ли Ми-Юн / Lee Mi-yun
Бэк Со-Мён / Baek So-myeong
Ким Чже-Рок / Kim Jae-rok
Сон Чжи-Хван / Son Jin-hwan
Ян Чжон-Хён / Yang Jong-hyeon
Описание: Чжи-Ван - женщина средних лет, которая уволившись с работы
решила снять свой фильм. Она пять лет работает над сценарием.
Её муж считает, что она попусту тратит своё время.
Её сын стыдится её. А её продюсер хочет, чтобы она написала сценарий,
который имел бы коммерческий успех.
Но она не сдаётся. И как знать, может ей удасться снять свой фильм....
Это семьдесят пятый фильм с моим переводом и озвучкой, выложенный здесь.
А здесь все мои раздачи [url=http://***/forum/tracker.php?rid=1940569#results]http://***/forum/tracker.php?rid=1940569#results[/url].
Любители душевного кино могут найти для себя что-то интересное.
Сэмпл: http://multi-up.com/928118
Качество видео: DVDRip
Формат видео: AVI
Видео: 720*416 (16:9), 23,976 fps, MPEG-4 Visual (XviD) ~ 1989 kbps avg, 0.277 bit/pixel
Аудио: MPEG Audio Layer 3, 48000Hz, stereo, 128kbps

MediaInfo

Общее
Полное имя : D:\TORENT\РАЗДАЧИ (РИПЫ)\Passerby #3.avi
Формат : AVI
Формат/Информация : Audio Video Interleave
Размер файла : 1,35 Гбайт
Продолжительность : 1 ч. 31 м.
Общий поток : 2126 Кбит/сек
Программа кодирования : VirtualDubModRus 1.5.10.2 (build 2542/release)
Библиотека кодирования : VirtualDubMod build 2542/release
Видео
Идентификатор : 0
Формат : MPEG-4 Visual
Профиль формата : Advanced Simple@L5
Параметр BVOP формата : Нет
Параметр QPel формата : Нет
Параметр GMC формата : Без точки перехода
Параметр матрицы формата : Выборочная
Идентификатор кодека : XVID
Идентификатор кодека/Подсказка : XviD
Продолжительность : 1 ч. 31 м.
Битрейт : 1989 Кбит/сек
Ширина : 720 пикс.
Высота : 416 пикс.
Соотношение сторон : 16:9
Частота кадров : 23,976 кадр/сек
Цветовое пространство : YUV
Подвыборка цветности : 4:2:0
Битовая глубина : 8 бит
Тип развёртки : Прогрессивная
Метод сжатия : С потерями
Бит/(Пиксели*Кадры) : 0.277
Размер потока : 1,26 Гбайт (94%)
Библиотека кодирования : XviD 63
Аудио
Идентификатор : 1
Формат : MPEG Audio
Версия формата : Version 1
Профиль формата : Layer 3
Режим : Joint stereo
Идентификатор кодека : 55
Идентификатор кодека/Подсказка : MP3
Продолжительность : 1 ч. 31 м.
Вид битрейта : Постоянный
Битрейт : 128 Кбит/сек
Канал(ы) : 2 канала(ов)
Частота : 48,0 КГц
Метод сжатия : С потерями
Размер потока : 83,4 Мбайт (6%)
Выравнивание : Соединение по промежуткам
Продолжительность промежутка : 42 мс. (1,00 видеокадр)
Время предзагрузки промежутка : 504 ms
Язык : Korean

Скриншот c названием фильма

Скриншоты

Скачать

Скачать торрент! Прохожий №3 / Радуга / Passerby #3 / Reinbou (Шин Су-Вон / Shin Su Won) [2010, Южная Корея, Драма, Комедия, DVDRip] VO D.I.M.

Как скачивать? · Что такое торрент? · Рейтинг и ограничения

Сайт не распространяет и не хранит электронные версии произведений, а лишь предоставляет доступ к создаваемому пользователями каталогу ссылок на торрент-файлы, которые содержат только списки хеш-сумм

[Профиль] [ЛС]
Показать сообщения:    
Ответить на тему

Текущее время: Сегодня 16:40

Часовой пояс: GMT + 4



Вы не можете начинать темы
Вы не можете отвечать на сообщения
Вы не можете редактировать свои сообщения
Вы не можете удалять свои сообщения
Вы не можете голосовать в опросах
Вы не можете прикреплять файлы к сообщениям
Вы не можете скачивать файлы