32-ое июля / July 32nd (Чжин Сын-Хён / Jin Seung-Hyeon) [2010, Южная Корея, Драма, DVDRip] VO D.I.M.

Ответить на тему
 
Автор Сообщение

user ®

Стаж: 11 лет

Сообщений: 15151

Пост Пост: #1 от 30-Ноя-2013 18:45

[Цитировать]

32-ое июля / July 32nd
Страна: Южная Корея
Жанр: Драма
Год выпуска: 2010
Продолжительность: 1:38:02
Перевод: Одноголосый закадровый D.I.M.
Cубтитры: нет
Режиссер: Чжин Сын-Хён / Jin Seung-Hyeon
В ролях: Пак Ын-Су / Park Eun-Soo
Ким Чжон-Гён / Kim Jeong-Gyun
Сон Хё-Рим / Seong Hye-Rim
Описание: Фильм рассказывает об отце и дочери,
чьи жизни изменились 31-го июля 1987 года.
Преследуемый полицией отец оставляет свою пятилетнюю дочь
на попечение какой-то проститутки, обещая забрать её
на следующий день.
Но этот следующий день не наступил,
потому что его арестовали и посадили в тюрьму на долгие годы.
Годы ожидания для дочери превратили тоску по отцу в ненависть к нему...
Это семьдесят седьмой фильм с моим переводом и озвучкой, выложенный здесь.
Любители душевного кино могут найти для себя что-то интересное.
Сэмпл: http://multi-up.com/928126
Качество видео: DVDRip
Формат видео: AVI
Видео: 720*416 (16:9), 23,976 fps, MPEG-4 Visual (XviD) ~ 1828 kbps avg, 0.255 bit/pixel
Аудио: MPEG Audio Layer 3, 48000Hz, stereo, 128kbps

MediaInfo

Общее
Полное имя : D:\TORENT\РАЗДАЧИ (РИПЫ)\JULY 32ND.avi
Формат : AVI
Формат/Информация : Audio Video Interleave
Размер файла : 1,35 Гбайт
Продолжительность : 1 ч. 38 м.
Общий поток : 1966 Кбит/сек
Программа кодирования : VirtualDubModRus 1.5.10.2 (build 2542/release)
Библиотека кодирования : VirtualDubMod build 2542/release
Видео
Идентификатор : 0
Формат : MPEG-4 Visual
Профиль формата : Advanced Simple@L5
Параметр BVOP формата : 1
Параметр QPel формата : Нет
Параметр GMC формата : Без точки перехода
Параметр матрицы формата : Выборочная
Идентификатор кодека : XVID
Идентификатор кодека/Подсказка : XviD
Продолжительность : 1 ч. 38 м.
Битрейт : 1828 Кбит/сек
Ширина : 720 пикс.
Высота : 416 пикс.
Соотношение сторон : 16:9
Частота кадров : 23,976 кадр/сек
Цветовое пространство : YUV
Подвыборка цветности : 4:2:0
Битовая глубина : 8 бит
Тип развёртки : Прогрессивная
Метод сжатия : С потерями
Бит/(Пиксели*Кадры) : 0.255
Размер потока : 1,25 Гбайт (93%)
Библиотека кодирования : XviD 63
Аудио
Идентификатор : 1
Формат : MPEG Audio
Версия формата : Version 1
Профиль формата : Layer 3
Режим : Joint stereo
Расширение режима : MS Stereo
Идентификатор кодека : 55
Идентификатор кодека/Подсказка : MP3
Продолжительность : 1 ч. 38 м.
Вид битрейта : Постоянный
Битрейт : 128 Кбит/сек
Канал(ы) : 2 канала(ов)
Частота : 48,0 КГц
Метод сжатия : С потерями
Размер потока : 89,8 Мбайт (7%)
Выравнивание : Соединение по промежуткам
Продолжительность промежутка : 42 мс. (1,00 видеокадр)
Время предзагрузки промежутка : 504 ms
Язык : Korean

Скриншот c названием фильма

Скриншоты

Скачать

Скачать торрент! 32-ое июля / July 32nd (Чжин Сын-Хён / Jin Seung-Hyeon) [2010, Южная Корея, Драма, DVDRip] VO D.I.M.

Как скачивать? · Что такое торрент? · Рейтинг и ограничения

Сайт не распространяет и не хранит электронные версии произведений, а лишь предоставляет доступ к создаваемому пользователями каталогу ссылок на торрент-файлы, которые содержат только списки хеш-сумм

[Профиль] [ЛС]
Показать сообщения:    
Ответить на тему

Текущее время: Сегодня 00:13

Часовой пояс: GMT + 4



Вы не можете начинать темы
Вы не можете отвечать на сообщения
Вы не можете редактировать свои сообщения
Вы не можете удалять свои сообщения
Вы не можете голосовать в опросах
Вы не можете прикреплять файлы к сообщениям
Вы не можете скачивать файлы