Элизиум: Рай не на Земле / Elysium (Нил Бломкамп / Neill Blomkamp) [2013, США, фантастика, боевик, триллер, драма, HDRip] Dub + Subs

Ответить на тему
 
Автор Сообщение

user ®

Стаж: 7 лет 7 месяцев

Сообщений: 20008

Пост Пост: #1 от 30-Ноя-2013 18:45

[Цитировать]

Элизиум: Рай не на Земле / Elysium- Страна: США
Жанр: фантастика, боевик, триллер, драма
Год выпуска: 2013
Продолжительность: 01:49:35
Перевод: Профессиональный (дублированный)
Cубтитры: русские на испанскую речь (вшитые)-Режиссер: Нил Бломкамп / Neill Blomkamp
В ролях: Мэтт Дэймон (Max), Джоди Фостер (Delacourt), Шарлто Копли (Kruger), Алиси Брага (Frey), Диего Луна (Julio), Вагнер Моура (Spider), Уильям Фихтнер (John Carlyle), Брэндон Оре (Drake), Джош Блэкер (Crowe), Эмма Тремблэ (Matilda), Хосе Пабло Кантилльо (Sandro).
Описание: Действия фильма разворачивается в 2154 году. В этом далеком будущем Земля оказалась на грани вымирания, войны и болезни нарушили баланс планеты, и так был создан спутник Земли Элизиум. Он отличался высоким уровнем медицины и чистейшей атмосферой и туда, переселилось множество людей высшего класса, в то время, как остальные жители планеты вынуждены были существовать в условиях экологической катастрофы. Макс Да Коста осужденный условно и живущий на Земле, получает смертельную дозу радиации, от которой он погибнет спустя несколько дней. Спасти его можно только на искусственной станции Элизиум, но вход туда строго охраняет правительство, во главе с министром обороны, мадам Делакур. Обратившись за помощью к своему знакомому по криминальному миру, некому Пауку, Макс просит его нелегально доставить на Элизиум. Тем временем, Паук, разработал гениальный план, по уравнению жителей Элизиума и Земли, и предлагает Максу его реализовать. Так как выбор у главного героя не большой, выход только один - принять предложение гангстера, и в случае успеха, Макс спасёт не только свою жизнь, но жизни многих землян...-Автор рипа: Scarabey
Качество видео: HDRip
Формат видео: AVI | Sample
Видео: 720x304 (2.37:1), 23.976 fps, XviD build 73 ~817 kbps avg, 0.16 bit/pixel
Аудио: 48 kHz, MPEG Layer 3, 2 ch, ~128.00 kbps avg (лицензия)

Скриншоты

Медиаинфо

Format : AVI
Format/Info : Audio Video Interleave
File size : 749 MiB
Duration : 1h 49mn
Overall bit rate : 955 Kbps
Writing application : VirtualDubMod 1.5.10.3 | (build 2550/release)
Writing library : VirtualDubMod build 2550/release
Video
ID : 0
Format : MPEG-4 Visual
Format profile : Advanced Simple@L5
Format settings, BVOP : Yes
Format settings, QPel : No
Format settings, GMC : No warppoints
Format settings, Matrix : Custom
Codec ID : XVID
Codec ID/Hint : XviD
Duration : 1h 49mn
Bit rate : 818 Kbps
Width : 720 pixels
Height : 304 pixels
Display aspect ratio : 2.35:1
Frame rate : 23.976 fps
Color space : YUV
Chroma subsampling : 4:2:0
Bit depth : 8 bits
Scan type : Progressive
Bits/(Pixel*Frame) : 0.156
Stream size : 641 MiB (86%)
Writing library : XviD 73
Audio
ID : 1
Format : MPEG Audio
Format version : Version 1
Format profile : Layer 3
Codec ID : 55
Codec ID/Hint : MP3
Duration : 1h 49mn
Bit rate mode : Constant
Bit rate : 128 Kbps
Channel(s) : 2 channels
Sampling rate : 48.0 KHz
Stream size : 100 MiB (13%)
Alignment : Aligned on interleaves
Interleave, duration : 42 ms (1.00 video frame)
Interleave, preload duration : 504 ms
Writing library : LAME3.99r
Encoding settings : -m s -V 4 -q 2 -lowpass 17 -b 128
Скачать

Скачать торрент!

Как скачивать? · Что такое торрент? · Рейтинг и ограничения

Сайт не распространяет и не хранит электронные версии произведений, а лишь предоставляет доступ к создаваемому пользователями каталогу ссылок на торрент-файлы, которые содержат только списки хеш-сумм

[Профиль] [ЛС]
Показать сообщения:    
Ответить на тему

Текущее время: Сегодня 13:52

Часовой пояс: GMT + 4



Вы не можете начинать темы
Вы не можете отвечать на сообщения
Вы не можете редактировать свои сообщения
Вы не можете удалять свои сообщения
Вы не можете голосовать в опросах
Вы не можете прикреплять файлы к сообщениям
Вы не можете скачивать файлы