Стукач / Snitch (Рик Роман Во / Ric Roman Waugh) [2013, США, ОАЭ, боевик, триллер, драма, BDRip] Dub + Original + Subs

Ответить на тему
 
Автор Сообщение

user ®

Стаж: 7 лет 7 месяцев

Сообщений: 20008

Пост Пост: #1 от 30-Ноя-2013 18:45

[Цитировать]

Стукач / Snitch- Страна: США, ОАЭ
Жанр: боевик, триллер, драма
Год выпуска: 2013
Продолжительность: 01:51:52
Перевод: Профессиональный (дублированный)
+ Оригинальная звуковая дорожка (English)
Cубтитры: русские, английские (внешние .srt)-Режиссер: Рик Роман Во / Ric Roman Waugh
В ролях: Дуэйн Джонсон, Барри Пеппер, Джон Бернтал, Сьюзен Сарандон, Майкл К. Уильямс, Рафи Гаврон, Мелина Канакаредес, Надин Веласкес, Бенджамин Брэтт, Лела Лорен
Описание: Джейсон Колинз — молодой парень, нашедший на свою голову очень большие неприятности. Работники полиции задержали его с пакетом наркотиков, и юноше грозит тюремное заключение на долгое время. Ему собираются дать минимальный срок, так как он не разу не нарушал закон, однако десять лет тоже очень много. У Джейсона появляется только один шанс не угодить за решетку. Его отец Джон соглашается на сделку с организацией по борьбе с наркотиками. Он должен внедриться в банду наркоторговцев и сдать полиции их босса. В случае успеха этой операции Джейсона выпустят на свободу. Однако роль стукача очень опасна, ведь в случае провала может пострадать вся их семья. Оказавшись в банде, Джон просто не имеет права даже на малейшую ошибку...-Релиз: Автор: kingsize87
Качество видео: BDRip (источник: Blu-Ray Remux / 1080р)
Формат видео: AVI | Sample
Видео: 720x304 (2.37:1), 23,976 fps, XviD build 65 ~1952 kbps avg, 0.37 bit/pixel
Аудио 1: 48 kHz, AC3 Dolby Digital, 3/2 (L,C,R,l,r) + LFE ch, ~384.00 kbps avg (RUS)
Аудио 2: 48 kHz, AC3 Dolby Digital, 3/2 (L,C,R,l,r) + LFE ch, ~448.00 kbps avg (ENG)

Скриншоты

MediaInfo

Format : AVI
Format/Info : Audio Video Interleave
Format profile : OpenDML
File size : 2.18 GiB
Duration : 1h 51mn
Overall bit rate : 2 791 Kbps
Movie name : Стукач / Snitch (2013) BDRip
Director : kingsize87
Writing application : VirtualDubMod 1.5.10.2 (build 2540/release)
Comment : 30.05.2013
Video
ID : 0
Format : MPEG-4 Visual
Format profile : Advanced Simple@L5
Format settings, BVOP : Yes
Format settings, QPel : No
Format settings, GMC : No warppoints
Format settings, Matrix : Custom
Codec ID : XVID
Codec ID/Hint : XviD
Duration : 1h 51mn
Bit rate : 1 941 Kbps
Width : 720 pixels
Height : 304 pixels
Display aspect ratio : 2.35:1
Frame rate : 23.976 fps
Color space : YUV
Chroma subsampling : 4:2:0
Bit depth : 8 bits
Scan type : Progressive
Bits/(Pixel*Frame) : 0.370
Stream size : 1.52 GiB (70%)
Writing library : XviD 65
Audio #1
ID : 1
Format : AC-3
Format/Info : Audio Coding 3
Mode extension : CM (complete main)
Codec ID : 2000
Duration : 1h 51mn
Bit rate mode : Constant
Bit rate : 384 Kbps
Channel(s) : 6 channels
Channel positions : Front: L C R, Side: L R, LFE
Sampling rate : 48.0 KHz
Bit depth : 16 bits
Stream size : 307 MiB (14%)
Alignment : Split accross interleaves
Interleave, duration : 42 ms (1.00 video frame)
Interleave, preload duration : 500 ms
Audio #2
ID : 2
Format : AC-3
Format/Info : Audio Coding 3
Mode extension : CM (complete main)
Codec ID : 2000
Duration : 1h 51mn
Bit rate mode : Constant
Bit rate : 448 Kbps
Channel(s) : 6 channels
Channel positions : Front: L C R, Side: L R, LFE
Sampling rate : 48.0 KHz
Bit depth : 16 bits
Stream size : 358 MiB (16%)
Alignment : Split accross interleaves
Interleave, duration : 42 ms (1.00 video frame)
Interleave, preload duration : 500 ms
Скачать

Скачать торрент!

Как скачивать? · Что такое торрент? · Рейтинг и ограничения

Сайт не распространяет и не хранит электронные версии произведений, а лишь предоставляет доступ к создаваемому пользователями каталогу ссылок на торрент-файлы, которые содержат только списки хеш-сумм

[Профиль] [ЛС]
Показать сообщения:    
Ответить на тему

Текущее время: Сегодня 22:03

Часовой пояс: GMT + 4



Вы не можете начинать темы
Вы не можете отвечать на сообщения
Вы не можете редактировать свои сообщения
Вы не можете удалять свои сообщения
Вы не можете голосовать в опросах
Вы не можете прикреплять файлы к сообщениям
Вы не можете скачивать файлы