Мизерере / La marque des anges - Miserere (Сильвен Уайт / Sylvain White) [2013, Франция, Бельгия, триллер, DVDRip] VO + Sub Rus

Ответить на тему
 
Автор Сообщение

user ®

Стаж: 7 лет 7 месяцев

Сообщений: 20008

Пост Пост: #1 от 30-Ноя-2013 18:45

[Цитировать]

Мизерере / La marque des anges - Miserere
Страна: Франция, Бельгия
Жанр: триллер
Год выпуска: 2013
Продолжительность: 01:41:17
Перевод: Одноголосый закадровый Andi
Cубтитры: русские (отдельно) KON2011
Оригинальная аудиодорожка: нет
Режиссер: Сильвен Уайт / Sylvain White
В ролях: Жерар Депардье,Джои Старр,Рюдигер Фоглер,Элена Ногуэрра,Марта Келлер,Тьерри Лермитт,Кевин Меффр,Иван Франек,Жерар Шеллу,Джеймс Жерар
Описание: В армянском соборе Святого Иоанна Крестителя в Париже убит чилийский беженец Вильгельм Гетц, регент хора мальчиков и органист. Касдан, офицер полиции в отставке и прихожанин собора, немедленно начинает собственное неофициальное расследование. К нему присоединяется Волокин из отдела по защите прав несовершеннолетних. Оказывается, в прошлом исчезло несколько мальчиков из хоров, которыми руководил Гетц. За первым преступлением следуют еще более кровавые убийства. Между полным опасностей расследованием, в которое пускаются герои, и старинным хоралом «Мизерере» существует таинственная связь…
Сэмпл: http://yadi.sk/d/9fH2nMu0DZKt2
Качество видео: DVDRip
Формат видео: AVI
Видео: 640*272, 835 Кбит/сек, 25,000 кадров/сек
Аудио: AC-3, 256 Кбит/сек, 2Ch., 48,0 КГц-русский

MediaInfo

бщее
Полное имя : P:\hor angelov\хор ангелов.avi
Формат : AVI
Формат/Информация : Audio Video Interleave
Размер файла : 797 Мбайт
Продолжительность : 1 ч. 41 м.
Общий поток : 1101 Кбит/сек
Программа кодирования : VirtualDubMod 1.5.10.2 (build 2540/release)
Библиотека кодирования : VirtualDubMod build 2540/release
Видео
Идентификатор : 0
Формат : MPEG-4 Visual
Профиль формата : Advanced Simple@L5
Параметр BVOP формата : 1
Параметр QPel формата : Нет
Параметр GMC формата : Без точки перехода
Параметр матрицы формата : Default (H.263)
Режим смешивания : Сжатый битовый поток
Идентификатор кодека : XVID
Идентификатор кодека/Подсказка : XviD
Продолжительность : 1 ч. 41 м.
Битрейт : 835 Кбит/сек
Ширина : 640 пикселей
Высота : 272 пикселя
Соотношение сторон : 2,35:1
Частота кадров : 25,000 кадров/сек
Цветовое пространство : YUV
Субдискретизация насыщенности : 4:2:0
Битовая глубина : 8 бит
Тип развёртки : Прогрессивная
Метод сжатия : С потерями
Бит/(Пиксели*Кадры) : 0.192
Размер потока : 605 Мбайт (76%)
Библиотека кодирования : XviD 64
Аудио
Идентификатор : 1
Формат : AC-3
Формат/Информация : Audio Coding 3
Расширение режима : CM (complete main)
Параметр Endianness формата : Big
Идентификатор кодека : 2000
Продолжительность : 1 ч. 41 м.
Вид битрейта : Постоянный
Битрейт : 256 Кбит/сек
Каналы : 2 канала
Расположение каналов : Front: L R
Частота : 48,0 КГц
Битовая глубина : 16 бит
Метод сжатия : С потерями
Размер потока : 185 Мбайт (23%)
Выравнивание : Разделение по промежуткам
Продолжительность промежутка : 40 мс. (1,00 видеокадр)
Время предзагрузки промежутка : 500 мс.

Скриншот c названием фильма

Скриншоты

Скачать

Скачать торрент!

Как скачивать? · Что такое торрент? · Рейтинг и ограничения

Сайт не распространяет и не хранит электронные версии произведений, а лишь предоставляет доступ к создаваемому пользователями каталогу ссылок на торрент-файлы, которые содержат только списки хеш-сумм

[Профиль] [ЛС]
Показать сообщения:    
Ответить на тему

Текущее время: Сегодня 16:27

Часовой пояс: GMT + 4



Вы не можете начинать темы
Вы не можете отвечать на сообщения
Вы не можете редактировать свои сообщения
Вы не можете удалять свои сообщения
Вы не можете голосовать в опросах
Вы не можете прикреплять файлы к сообщениям
Вы не можете скачивать файлы