Спасти Санту / Saving Santa (Леон Джусен, Аарон Силман / Juice Leon, Aaron Silman) [2013, Мюзикл, комедия, семейный, HDRip] Dub

Ответить на тему
 
Автор Сообщение

user ®

Стаж: 12 лет

Сообщений: 15145

Пост Пост: #1 от 30-Ноя-2013 09:55

[Цитировать]

Спасти Санту / Saving Santa
Страна: Великобритания
Жанр: Мюзикл, комедия, семейный
Продолжительность: 01:23:54
Год выпуска: 2013
Перевод: Профессиональный (дублированный)
Русские субтитры: нет
Режиссёр: Леон Джусен, Аарон Силман / Juice Leon, Aaron Silman
Роли озвучивали: Владислав Лисовец, Алексей Чумаков, Юлия Ковальчук, Михаил Пореченков
Описание: Эльф Бернард — очень мил, весел, и… слегка несерьёзен. Но ему придется измениться, ведь у него впереди потрясающее и очень опасное приключение! Кто-то собирается похитить Санту и его волшебные сани, в которых можно перемещаться в разные эпохи. А без Санты Новый год никогда не наступит! Бернарду придётся переместиться во времени, сразиться со злодеем, остановить его армию, изменить прошлое, спасти Новый год и стать настоящим героем!
Семпл: http://multi-up.com/928081
Качество: HDRip
Формат: AVI
Видео: 688x368 (1.87:1), 23.976 fps, XviD build 47, 1103 kbps avg, 0.18 bit/pixel
Аудио: 48 kHz, MPEG Layer 3, 2 ch, 128.00 kbps avg
Субтитры: отсутствуют

Подробные технические данные

Spasti.Santu.745.avi Format : AVI Format/Info : Audio Video Interleave File size : 744 MiB Duration : 1h 23mn Overall bit rate : 1 241 Kbps Movie name : Spasti.Santu.2013.HDRip.745Mb.[ СПАМ Writing application : VirtualDubMod 1.5.10.2 (build 2540/release) Copyright : http:// СПАМ Video #0 ID : 0 Format : MPEG-4 Visual Format profile : Advanced Simple@L5 Format settings, BVOP : 2 Format settings, QPel : No Format settings, GMC : No warppoints Format settings, Matrix : Default (MPEG) Codec ID : XVID Codec ID/Hint : XviD Duration : 1h 23mn Bit rate : 1 104 Kbps Width : 688 pixels Height : 368 pixels Display aspect ratio : 1.870 Frame rate : 23.976 fps Color space : YUV Chroma subsampling : 4:2:0 Bit depth : 8 bits Scan type : Progressive Compression mode : Lossy Bits/(Pixel*Frame) : 0.182 Stream size : 661 MiB (89%) Writing library : XviD 1.2.0.dev47 (UTC 2006-11-01) Audio #1 ID : 1 Format : MPEG Audio Format version : Version 1 Format profile : Layer 3 Codec ID : 55 Codec ID/Hint : MP3 Duration : 1h 23mn Bit rate mode : Constant Bit rate : 128 Kbps Channel(s) : 2 channels Sampling rate : 48.0 KHz Compression mode : Lossy Stream size : 76.7 MiB (10%) Alignment : Aligned on interleaves Interleave, duration : 42 ms (1.00 video frame) Interleave, preload duration : 504 ms Writing library : LAMELAME_MAJOR_VERSI

Скриншоты

Скачать

Скачать торрент! Спасти Санту / Saving Santa (Леон Джусен, Аарон Силман / Juice Leon, Aaron Silman) [2013, Мюзикл, комедия, семейный, HDRip] Dub

Как скачивать? · Что такое торрент? · Рейтинг и ограничения

Сайт не распространяет и не хранит электронные версии произведений, а лишь предоставляет доступ к создаваемому пользователями каталогу ссылок на торрент-файлы, которые содержат только списки хеш-сумм

[Профиль] [ЛС]
Показать сообщения:    
Ответить на тему

Текущее время: Сегодня 21:24

Часовой пояс: GMT + 4



Вы не можете начинать темы
Вы не можете отвечать на сообщения
Вы не можете редактировать свои сообщения
Вы не можете удалять свои сообщения
Вы не можете голосовать в опросах
Вы не можете прикреплять файлы к сообщениям
Вы не можете скачивать файлы