Осада базы Глория / The Siege of Firebase Gloria (Брайан Тренчард-Смит / Brian Trenchard-Smith) [1989, Австралия, Филиппины, Боевик, военная драма, HDTV 1080i] DVO (НТВ+) + AVO (А. Карповский) + Original Eng

Ответить на тему
 
Автор Сообщение

user ®

Стаж: 7 лет 7 месяцев

Сообщений: 20008

Пост Пост: #1 от 30-Ноя-2013 09:55

[Цитировать]

Осада базы Глория / The Siege of Firebase Gloria
Страна: Австралия, Филиппины
Студия: Bancannia Holdings Pty. Ltd., Eastern Film Management Corporation
Жанр: Боевик, военная драма
Год выпуска: 1989
Продолжительность: 01:35:13
Перевод 1: Профессиональный (двухголосый закадровый) НТВ+
Перевод 2: Авторский (одноголосый закадровый) А. Карповский
Cубтитры: есть вшитые английские субтитры (где говорят по вьетнамски)
Оригинальная аудиодорожка: английский
Режиссер: Брайан Тренчард-Смит / Brian Trenchard-Smith
В ролях: Уингз Хаузер, Р. Ли Эрми, Роберт Аревало, Марк Нили, Гэри Хершбергер, Клайд Джоунс, Марги Джерард, Ричард Кулмэн, Джон Кэлвин, Альберт Попуэлл, Майкл Круз, Эрих Хаузер, Дон Уилсон, Ник Николсон
Описание: Во время войны во Вьетнаме в ходе выполнения боевого задания группа морских пехотинцев попадает на базу огневой поддержки "Глория". Ее гарнизон занимается лишь тем, что пьянствует и развлекается как может. Морпехи довольно быстро налаживают дисциплину и берут ситуацию в свои руки...

IMDB
Доп. информация:
Авторский перевод наложен на французский дубляж, за него спасибо Golcev
За оригинальную дорогу спасибо dmitry2264
Тип релиза: HDTV 1080i
Контейнер: MKV
Видео: AVC 1920x1080 (16:9) 25.0fps Bit rate 7485Kbps
Аудио 1: MP2 48.0KHz 2ch 192 Kbps rus DVO
Аудио 2: AC3 48.0KHz 2ch 192 Kbps rus AVO
Аудио 3: AC3 48.0KHz 2ch 192 Kbps eng

MediaInfo

Общее
Уникальный идентификатор : 224750535291289645528163106885826516410 (0xA91560EB802DD54D9C575642967C15BA)
Полное имя : E:\torrent\Osada.Bazy.Gloriya_HDTV1080i.mkv
Формат : Matroska
Версия формата : Version 4 / Version 2
Размер файла : 5,47 Гбайт
Продолжительность : 1 ч. 35 м.
Общий поток : 8224 Кбит/сек
Дата кодирования : UTC 2013-11-29 07:45:42
Программа кодирования : mkvmerge v6.4.1 ('Omega Point') built on Sep 16 2013 22:05:10
Библиотека кодирования : libebml v1.3.0 + libmatroska v1.4.1
Видео
Идентификатор : 1
Формат : AVC
Формат/Информация : Advanced Video Codec
Профиль формата : High@L4.0
Параметр CABAC формата : Да
Параметр ReFrames формата : 3 кадра
Идентификатор кодека : V_MPEG4/ISO/AVC
Продолжительность : 1 ч. 35 м.
Битрейт : 7485 Кбит/сек
Ширина : 1920 пикселей
Высота : 1080 пикселей
Соотношение сторон : 16:9
Режим частоты кадров : Постоянный
Частота кадров : 25,000 кадров/сек
Стандарт вещания : Component
Цветовое пространство : YUV
Субдискретизация насыщенности : 4:2:0
Битовая глубина : 8 бит
Тип развёртки : Чересстрочная
Порядок развёртки : Верхнее поле первое
Бит/(Пиксели*Кадры) : 0.144
Размер потока : 4,98 Гбайт (91%)
Заголовок : Osada.Bazy.Gloriya_HDTV1080i
Default : Да
Forced : Нет
Основные цвета : BT.709
Характеристики трансфера : BT.709
Коэффициенты матрицы : BT.709
Аудио #1
Идентификатор : 2
Формат : MPEG Audio
Версия формата : Version 1
Профиль формата : Layer 2
Идентификатор кодека : A_MPEG/L2
Идентификатор кодека/Подсказка : MP2
Продолжительность : 1 ч. 35 м.
Вид битрейта : Постоянный
Битрейт : 192 Кбит/сек
Каналы : 2 канала
Частота : 48,0 КГц
Метод сжатия : С потерями
Размер потока : 131 Мбайт (2%)
Заголовок : Osada.Bazy.Gloriya_MP2_2ch_DVO_NTV+
Язык : Russian
Default : Да
Forced : Нет
Аудио #2
Идентификатор : 3
Формат : AC-3
Формат/Информация : Audio Coding 3
Расширение режима : CM (complete main)
Параметр Endianness формата : Big
Идентификатор кодека : A_AC3
Продолжительность : 1 ч. 35 м.
Вид битрейта : Постоянный
Битрейт : 192 Кбит/сек
Каналы : 2 канала
Расположение каналов : Front: L R
Частота : 48,0 КГц
Битовая глубина : 16 бит
Метод сжатия : С потерями
Размер потока : 131 Мбайт (2%)
Заголовок : Osada.Bazy.Gloriya_AC3_2ch_AVO_A. Karpovskiy
Язык : Russian
Default : Нет
Forced : Нет
Аудио #3
Идентификатор : 4
Формат : AC-3
Формат/Информация : Audio Coding 3
Расширение режима : CM (complete main)
Параметр Endianness формата : Big
Идентификатор кодека : A_AC3
Продолжительность : 1 ч. 35 м.
Вид битрейта : Постоянный
Битрейт : 192 Кбит/сек
Каналы : 2 канала
Расположение каналов : Front: L R
Частота : 48,0 КГц
Битовая глубина : 16 бит
Метод сжатия : С потерями
Размер потока : 131 Мбайт (2%)
Заголовок : Osada.Bazy.Gloriya_AC3_2ch_original eng

Скриншот с названием фильма

Скриншоты

Скачать

Скачать торрент!

Как скачивать? · Что такое торрент? · Рейтинг и ограничения

Сайт не распространяет и не хранит электронные версии произведений, а лишь предоставляет доступ к создаваемому пользователями каталогу ссылок на торрент-файлы, которые содержат только списки хеш-сумм

[Профиль] [ЛС]
Показать сообщения:    
Ответить на тему

Текущее время: Сегодня 01:47

Часовой пояс: GMT + 4



Вы не можете начинать темы
Вы не можете отвечать на сообщения
Вы не можете редактировать свои сообщения
Вы не можете удалять свои сообщения
Вы не можете голосовать в опросах
Вы не можете прикреплять файлы к сообщениям
Вы не можете скачивать файлы