Несвятые / Ain\'t Them Bodies Saints (Дэвид Лоури / David Lowery) [2013, США, драма, мелодрама, криминал, WEB-DLRip] DVO

Ответить на тему
 
Автор Сообщение

user ®

Стаж: 7 лет 7 месяцев

Сообщений: 20008

Пост Пост: #1 от 30-Ноя-2013 03:35

[Цитировать]

НесвятыеAin't Them Bodies Saints- Страна: США
Жанр: драма, мелодрама, криминал
Год выпуска: 2013
Продолжительность: 01:35:59-Перевод: Любительский (двухголосый закадровый) [Андрей Питерский и Камила Юнусова]
Субтитры: нет
Режиссер: Дэвид Лоури / David Lowery
В ролях: Кейси Аффлек, Руни Мара, Бен Фостер, Кит Кэрредин, Кеннади Смит, Джеклинн Смит, Нэйт Паркер, Роберт Лонгстрит, Чарльз Бэйкер, Августин Фриззелл, Эндрю Неннингер, Дэвид Зеллнер-Описание: Техас, 1970-е годы. Попав в засаду, трое молодых преступников тяжело ранят одного из окруживших их полицейских. Главарь банды Боб Малдун берет всю вину на себя, хотя роковой выстрел сделала его девушка Рут, и отправляется за решетку на много лет. Уже в тюрьме он узнает, что у него родилась дочь Сильвия. Чтобы увидеть девочку Боб совершает побег за побегом, но вырваться на свободу ему удается только через четыре долгих года. Его следы ведут в противоположном от родных мест направлении, однако техасская полиция (и прежде всего Патрик Смоллс - офицер, раненный в той давней перестрелке) считает, что появиться беглец может только там, где находится маленькая Сильвия. Все готово к охоте на Малдуна, но, оказывается, что не только служители закона хотят заставить Боба сполна заплатить по давним счетам.-


MPAA: R - Лицам до 17 лет обязательно присутствие взрослого-

Доп. Информация

Сценарий: Дэвид Лоури / David Lowery
Продюсер: Джей Ван Хой / Jay Van Hoy, Кассиан Элвис / Cassian Elwes, Тоби Хальбрукс / Toby Halbrooks, Джеймс М. Джонстон / James M. Johnston, Эми Кауфман / Amy Kaufman
Оператор: Брэдфорд Янг / Bradford Young
Композитор: Дэниэл Харт / Daniel Hart
Сборы в США: $391 611
Сборы в мире: $875 933
Мировая премьера: 20 января 2013
-Качество: WEB-DLRip
Контейнер: AVI
Видео: 704x288 (2.44:1), 23.976 fps, XviD build 65 ~856 kbps avg, 0.18 bit/pixel
Аудио: 48 kHz, MPEG Layer 3, 2 ch, ~192.00 kbps avg-

Media Info

Общее
Полное имя : G:\Aint.Them.Bodies.Saints.2013_L2.WEBDLRip.avi
Формат : AVI
Формат/Информация : Audio Video Interleave
Размер файла : 726 Мбайт
Продолжительность : 1 ч. 35 м.
Общий поток : 1057 Кбит/сек
Программа кодирования : VirtualDubMod 1.5.10.3 | www.virtualdub-fr.org || (build 2550/release)
Библиотека кодирования : VirtualDubMod build 2550/release
Видео
Идентификатор : 0
Формат : MPEG-4 Visual
Профиль формата : Advanced Simple@L5
Параметр BVOP формата : 1
Параметр QPel формата : Нет
Параметр GMC формата : Без точки перехода
Параметр матрицы формата : Default (H.263)
Идентификатор кодека : XVID
Идентификатор кодека/Подсказка : XviD
Продолжительность : 1 ч. 35 м.
Битрейт : 856 Кбит/сек
Ширина : 704 пикселя
Высота : 288 пикселей
Соотношение сторон : 2,40:1
Частота кадров : 23,976 кадра/сек
Цветовое пространство : YUV
Субдискретизация насыщенности : 4:2:0
Битовая глубина : 8 бит
Тип развёртки : Прогрессивная
Метод сжатия : С потерями
Бит/(Пиксели*Кадры) : 0.176
Размер потока : 588 Мбайт (81%)
Библиотека кодирования : XviD 65
Аудио
Идентификатор : 1
Формат : MPEG Audio
Версия формата : Version 1
Профиль формата : Layer 3
Режим : Joint stereo
Расширение режима : MS Stereo
Идентификатор кодека : 55
Идентификатор кодека/Подсказка : MP3
Продолжительность : 1 ч. 35 м.
Вид битрейта : Постоянный
Битрейт : 192 Кбит/сек
Каналы : 2 канала
Частота : 48,0 КГц
Метод сжатия : С потерями
Размер потока : 132 Мбайт (18%)
Выравнивание : Соединение по промежуткам
Продолжительность промежутка : 42 мс. (1,00 видеокадр)
Время предзагрузки промежутка : 504 мс.
Библиотека кодирования : LAME3.99r
Настройки программы : -m j -V 4 -q 2 -lowpass 18.6 -b 192

Скриншот с названием фильма

Скриншоты

Торрент-файл заменён в связи и заменой рипа на более качественный.
Скачать

Скачать торрент!

Как скачивать? · Что такое торрент? · Рейтинг и ограничения

Сайт не распространяет и не хранит электронные версии произведений, а лишь предоставляет доступ к создаваемому пользователями каталогу ссылок на торрент-файлы, которые содержат только списки хеш-сумм

[Профиль] [ЛС]
Показать сообщения:    
Ответить на тему

Текущее время: Сегодня 02:10

Часовой пояс: GMT + 4



Вы не можете начинать темы
Вы не можете отвечать на сообщения
Вы не можете редактировать свои сообщения
Вы не можете удалять свои сообщения
Вы не можете голосовать в опросах
Вы не можете прикреплять файлы к сообщениям
Вы не можете скачивать файлы