Перед полуночью / Before Midnight (Ричард Линклейтер / Richard Linklater) [2013, США, драма, мелодрама, BDRip-AVC] DVO + VO + Original Eng + Sub (Ru+Eng)

Ответить на тему
 
Автор Сообщение

user ®

Стаж: 7 лет 7 месяцев

Сообщений: 20008

Пост Пост: #1 от 29-Ноя-2013 17:40

[Цитировать]

Перед полуночью / Before Midnight
Страна: США
Жанр: драма, мелодрама
Год выпуска: 2013
Продолжительность: 01:48:54
Перевод: Любительский (двухголосый закадровый) [Зоя Балецкая и Юрий Андреев]
Перевод 2: Одноголосый закадровый [Михаил Чадов]
Cубтитры: английские, русские
Оригинальная аудиодорожка: английский отдельно-Режиссер: Ричард Линклейтер / Richard Linklater
В ролях: Итан Хоук, Жюли Дельпи, Шеймас Дэви-Фицпатрик, Дженнифер Прайор, Шарлотта Прайор, Ксения Калогеропулу, Уолтер Лассали, Ариана Лабед, Яннис Пападопулос, Афина Рахель Цангари, Панос Коронис, Энрико Фокарди-Описание: Мы встречаем Джесси и Селин еще через 9 лет в Греции. Почти два десятилетия прошло с их первой встречи в поезде, направляющемся в Вену.
«Перед полуночью» - третий фильм из культовой саги Ричарда Линклейтера о любви американца Джесси (Итан Хоук) и француженки Селин (Жюли Дельпи).
Первый фильм данной трилогии вышел в 1995-м году под названием «Перед рассветом». Это история про двух подростков, американца Джесси и француженки Селин. Их случайная встреча в поезде привела к возникновению сильных чувств. «Перед рассветом» имел головокружительный успех среди зрителей и критиков.
В 2004-м году выходит сиквел «Перед закатом». На этот раз Джесси и Селин встретились спустя девять лет. Каждый построил свою карьеру. Например, Джесси написал роман, а Селин пишет песни. Весь фильм – это диалоги между главными героями о том, как сложилась их жизни. Оказывается, что они несчастны в семейной жизни. «Перед закатом» имеет неоднозначную концовку.
Долгое время любители фильма гадали, что же произошло с Джесси и Селин. И в 2013-м году Линклейтер выпускает третий фильм «Перед полуночью». Джесси и Селин уже повзрослевшие люди. Они живут в браке, успели уже завести детей. Просто идеальная семейная жизнь. Но не все так просто. Семейная жизнь дает трещины. Селин стала интеллектуалкой, а Джесси начал присматриваться к молоденьким девушкам. «Перед полуночью» показывает уже не тех подростков, которые часами могут говорить о разных вещах, а людей в возрасте.-Перевод на русский язык: [Евгений Кудашев]
Pабота со звуковой дорожкой М.Чадова: [Perevodman]
[/url] -Качество видео: BDRip-AVC Before.Midnight.2013.1080p.BluRay
Формат видео: MKV
Видео: AVC (H.264), 1040x560 (1,85:1 ), 23,9 fps, ~1971 kbps avg, 0.14 bit/pixel
Аудио: 48 kHz, AC3 Dolby Digital, 6ch, ~448 kbps DVO
Аудио 2: 48 kHz, AC3 Dolby Digital, 6ch, ~448 kbps VO
Аудио 3: 48 kHz, AC3 Dolby Digital, 6ch, ~448 kbps En
Формат субтитров: softsub (SRT)

MediaInfo

Общее
Уникальный идентификатор : 221722145808172589608737578930498700103 (0xA6CE21CA657FEB879BCF67A691D00347)
Полное имя : E:\Before.Midnight.2013.mkv
Формат : Matroska
Версия формата : Version 4 / Version 2
Размер файла : 2,18 Гбайт
Продолжительность : 1 ч. 48 м.
Общий поток : 2868 Кбит/сек
Дата кодирования : UTC 2013-11-27 12:49:51
Программа кодирования : mkvmerge v6.3.0 ('You can't stop me!') built on Jun 28 2013 20:09:41
Библиотека кодирования : libebml v1.3.0 + libmatroska v1.4.0
Видео
Идентификатор : 1
Формат : AVC
Формат/Информация : Advanced Video Codec
Профиль формата : High@L4.1
Параметр CABAC формата : Да
Параметр ReFrames формата : 14 кадров
Идентификатор кодека : V_MPEG4/ISO/AVC
Продолжительность : 1 ч. 48 м.
Битрейт : 1971 Кбит/сек
Ширина : 1040 пикселей
Высота : 560 пикселей
Соотношение сторон : 1,85:1
Режим частоты кадров : Постоянный
Частота кадров : 23,976 кадра/сек
Цветовое пространство : YUV
Субдискретизация насыщенности : 4:2:0
Битовая глубина : 8 бит
Тип развёртки : Прогрессивная
Бит/(Пиксели*Кадры) : 0.141
Размер потока : 1,46 Гбайт (67%)
Библиотека кодирования : x264 core 133 r2334 a3ac64b
Настройки программы : cabac=1 / ref=14 / deblock=1:-2:-2 / analyse=0x3:0x133 / me=umh / subme=11 / psy=1 / psy_rd=1.00:0.10 / mixed_ref=1 / me_range=32 / chroma_me=1 / trellis=2 / 8x8dct=1 / cqm=0 / deadzone=21,11 / fast_pskip=1 / chroma_qp_offset=-3 / threads=6 / lookahead_threads=1 / sliced_threads=0 / nr=0 / decimate=1 / interlaced=0 / bluray_compat=0 / constrained_intra=0 / bframes=8 / b_pyramid=2 / b_adapt=2 / b_bias=0 / direct=3 / weightb=1 / open_gop=0 / weightp=2 / keyint=240 / keyint_min=22 / scenecut=40 / intra_refresh=0 / rc_lookahead=60 / rc=2pass / mbtree=1 / bitrate=1971 / ratetol=1.0 / qcomp=0.60 / qpmin=10 / qpmax=51 / qpstep=4 / cplxblur=20.0 / qblur=0.5 / vbv_maxrate=62500 / vbv_bufsize=78125 / nal_hrd=none / ip_ratio=1.40 / aq=1:1.00
Язык : English
Default : Да
Forced : Нет
Аудио #1
Идентификатор : 2
Формат : AC-3
Формат/Информация : Audio Coding 3
Расширение режима : CM (complete main)
Параметр Endianness формата : Big
Идентификатор кодека : A_AC3
Продолжительность : 1 ч. 48 м.
Вид битрейта : Постоянный
Битрейт : 448 Кбит/сек
Каналы : 6 каналов
Расположение каналов : Front: L C R, Side: L R, LFE
Частота : 48,0 КГц
Битовая глубина : 16 бит
Метод сжатия : С потерями
Размер потока : 349 Мбайт (16%)
Заголовок : DVO
Язык : Russian
Default : Да
Forced : Нет
Аудио #2
Идентификатор : 3
Формат : AC-3
Формат/Информация : Audio Coding 3
Расширение режима : CM (complete main)
Параметр Endianness формата : Big
Идентификатор кодека : A_AC3
Продолжительность : 1 ч. 48 м.
Вид битрейта : Постоянный
Битрейт : 448 Кбит/сек
Каналы : 6 каналов
Расположение каналов : Front: L C R, Side: L R, LFE
Частота : 48,0 КГц
Битовая глубина : 16 бит
Метод сжатия : С потерями
Размер потока : 349 Мбайт (16%)
Заголовок : VO
Язык : Russian
Default : Нет
Forced : Нет
Текст #1
Идентификатор : 4
Формат : UTF-8
Идентификатор кодека : S_TEXT/UTF8
Идентификатор кодека/Информация : UTF-8 Plain Text
Язык : Russian
Default : Нет
Forced : Нет
Текст #2
Идентификатор : 5
Формат : UTF-8
Идентификатор кодека : S_TEXT/UTF8
Идентификатор кодека/Информация : UTF-8 Plain Text
Язык : English
Default : Нет
Forced : Нет

Скриншоты

Скачать

Скачать торрент!

Как скачивать? · Что такое торрент? · Рейтинг и ограничения

Сайт не распространяет и не хранит электронные версии произведений, а лишь предоставляет доступ к создаваемому пользователями каталогу ссылок на торрент-файлы, которые содержат только списки хеш-сумм

[Профиль] [ЛС]
Показать сообщения:    
Ответить на тему

Текущее время: Сегодня 16:18

Часовой пояс: GMT + 4



Вы не можете начинать темы
Вы не можете отвечать на сообщения
Вы не можете редактировать свои сообщения
Вы не можете удалять свои сообщения
Вы не можете голосовать в опросах
Вы не можете прикреплять файлы к сообщениям
Вы не можете скачивать файлы