Университетский вампир / Vamp U (Мэтт Есперсен / Matt Jespersen, Маклейн Нельсон / Maclain Nelson) [2013, США, ужасы, боевик, комедия, WEB-DLRip] MVO

Ответить на тему
 
Автор Сообщение

user ®

Стаж: 7 лет 7 месяцев

Сообщений: 20008

Пост Пост: #1 от 29-Ноя-2013 17:40

[Цитировать]

Университетский вампирVamp U- Страна: США
Жанр: ужасы, боевик, комедия
Год выпуска: 2013
Продолжительность: 01:35:57-Перевод: Профессиональный (многоголосый, закадровый) [НТВ+]
Субтитры: нет
Режиссер: Мэтт Есперсен / Matt Jespersen, Маклейн Нельсон / Maclain Nelson
В ролях: Джули Гонсало, Адам Джонсон, Алексис Нэп, Гэри Коул, Маклейн Нельсон, Мэтт Маттсон, Барт Джонсон, Клэр Нидерпрюэм, Фрэнки Леванджи, Джейк Ван Вагонер, Ренни Грэймс, Джейсон Целая-Описание: 300 лет назад вампир Уэйн Грецки утратил способность «вампирствовать» после потери любви всей жизни. В наши дни он профессор колледжа, однако вампирическое проклятие продолжает преследовать его.-

-

Доп. Информация

Сценарий: Мэтт Есперсен / Matt Jespersen, Маклейн Нельсон / Maclain Nelson
Продюсер: Маклейн Нельсон / Maclain Nelson, Брайнтон Брайан / Brinton Bryan, Т.Р. Гурли / T.R. Gourley, Брэд Джонсон / Brad Johnson, Саад Аль-Энези / Saad Al-Enezi
Оператор: Брэдфорд Уайтакер / Bradford Whitaker
Композитор: Роберт Аллен Эллиотт / Robert Allen Elliott
Мировая премьера: 5 марта 2013
-Качество: WEB-DLRip
Контейнер: AVI
Видео: XviD, 640x352 (16:9), 878 kbps, 23,976 fps, 0,163 bpp
Аудио: MP3 / 2.0 / 48 kHz / 128 kbps /-

Media Info

General
Complete name : D:\Vamp.U.2013.P.WEBDLRip_700M.avi
Format : AVI
Format/Info : Audio Video Interleave
File size : 697 MiB
Duration : 1h 35mn
Overall bit rate : 1 016 Kbps
Writing application : VirtualDubMod 1.5.10.3 | www.virtualdub-fr.org || (build 2550/release)
Writing library : VirtualDubMod build 2550/release
Video
ID : 0
Format : MPEG-4 Visual
Format profile : Advanced Simple@L5
Format settings, BVOP : 1
Format settings, QPel : No
Format settings, GMC : No warppoints
Format settings, Matrix : Custom
Codec ID : XVID
Codec ID/Hint : XviD
Duration : 1h 35mn
Bit rate : 879 Kbps
Width : 640 pixels
Height : 352 pixels
Display aspect ratio : 16:9
Frame rate : 23.976 fps
Color space : YUV
Chroma subsampling : 4:2:0
Bit depth : 8 bits
Scan type : Progressive
Compression mode : Lossy
Bits/(Pixel*Frame) : 0.163
Stream size : 603 MiB (86%)
Writing library : XviD 1.2.1 (UTC 2008-12-04)
Audio
ID : 1
Format : MPEG Audio
Format version : Version 1
Format profile : Layer 3
Mode : Joint stereo
Mode extension : MS Stereo
Codec ID : 55
Codec ID/Hint : MP3
Duration : 1h 35mn
Bit rate mode : Constant
Bit rate : 128 Kbps
Channel(s) : 2 channels
Sampling rate : 48.0 KHz
Compression mode : Lossy
Stream size : 87.8 MiB (13%)
Alignment : Aligned on interleaves
Interleave, duration : 42 ms (1.00 video frame)
Interleave, preload duration : 504 ms

Скриншот с названием фильма

Скриншоты

Скачать

Скачать торрент!

Как скачивать? · Что такое торрент? · Рейтинг и ограничения

Сайт не распространяет и не хранит электронные версии произведений, а лишь предоставляет доступ к создаваемому пользователями каталогу ссылок на торрент-файлы, которые содержат только списки хеш-сумм

[Профиль] [ЛС]
Показать сообщения:    
Ответить на тему

Текущее время: Сегодня 22:33

Часовой пояс: GMT + 4



Вы не можете начинать темы
Вы не можете отвечать на сообщения
Вы не можете редактировать свои сообщения
Вы не можете удалять свои сообщения
Вы не можете голосовать в опросах
Вы не можете прикреплять файлы к сообщениям
Вы не можете скачивать файлы