Миддлтон / At Middleton (Адам Роджерс / Adam Rodgers) [2013, США, мелодрама, DVDRip] MVO

Ответить на тему
 
Автор Сообщение

user ®

Стаж: 7 лет 7 месяцев

Сообщений: 20008

Пост Пост: #1 от 29-Ноя-2013 17:40

[Цитировать]

МиддлтонAt Middleton«You never know what you'll discover on your first day at college»- Страна: США
Жанр: мелодрама
Год выпуска: 2013
Продолжительность: 01:36:13-Перевод: Профессиональный (многоголосый, закадровый)
Субтитры: нет
Режиссер: Адам Роджерс / Adam Rodgers
В ролях: Энди Гарсиа, Вера Фармига, Таисса Фармига, Спенсер Лофранко, Николас Браун, Том Скеррит, Питер Ригерт, Миряна Йокович, Стефен Борелло IV, Даниэлла Гарсиа-Лоридо, Saxton Johnson, Шон Кук-Описание: Мужчина и женщина влюбляются друг в друга во время тура по устройству своих детей в колледж.-


MPAA: R - Лицам до 17 лет обязательно присутствие взрослого-

Доп. Информация

Сценарий: Гленн Герман / Glenn German, Адам Роджерс / Adam Rodgers
Продюсер: Энди Гарсиа / Andy Garcia, Гленн Герман / Glenn German, Сиг Либовиц / Sig Libowitz, Марк Дальстром / Marc Dahlstrom, Джо Драго / Joe Drago
Оператор: Эммануэль Кадош / Emmanuel Kadosh
Композитор: Артуро Сандовал / Arturo Sandoval
Мировая премьера: 17 мая 2013
Релиз на DVD: 10 декабря 2013,
«Парадиз / Активижен»
-Качество: DVDRip
Контейнер: AVI
Видео: XviD, 640x352 (16:9), 884 kbps, 25 fps, 0,157 bpp
Аудио: MP3 / 2.0 / 48 kHz / 128 kbps /-

Media Info

General
Complete name : D:\Middlton.2013.P.DVDRip_700Mb.avi
Format : AVI
Format/Info : Audio Video Interleave
File size : 703 MiB
Duration : 1h 36mn
Overall bit rate : 1 022 Kbps
Writing application : VirtualDubMod 1.5.10.2 (build 2540/release)
Writing library : VirtualDubMod build 2540/release
Video
ID : 0
Format : MPEG-4 Visual
Format profile : Simple@L3
Format settings, BVOP : No
Format settings, QPel : No
Format settings, GMC : No warppoints
Format settings, Matrix : Default (H.263)
Codec ID : XVID
Codec ID/Hint : XviD
Duration : 1h 36mn
Bit rate : 884 Kbps
Width : 640 pixels
Height : 352 pixels
Display aspect ratio : 16:9
Frame rate : 25.000 fps
Color space : YUV
Chroma subsampling : 4:2:0
Bit depth : 8 bits
Scan type : Progressive
Compression mode : Lossy
Bits/(Pixel*Frame) : 0.157
Stream size : 609 MiB (87%)
Writing library : XviD 1.1.2 (UTC 2006-11-01)
Audio
ID : 1
Format : MPEG Audio
Format version : Version 1
Format profile : Layer 3
Mode : Joint stereo
Mode extension : MS Stereo
Codec ID : 55
Codec ID/Hint : MP3
Duration : 1h 36mn
Bit rate mode : Constant
Bit rate : 128 Kbps
Channel(s) : 2 channels
Sampling rate : 48.0 KHz
Compression mode : Lossy
Stream size : 88.1 MiB (13%)
Alignment : Aligned on interleaves
Interleave, duration : 40 ms (1.00 video frame)
Interleave, preload duration : 504 ms
Writing library : LAME3.90.3

Скриншот с названием фильма

Скриншоты

Скачать

Скачать торрент!

Как скачивать? · Что такое торрент? · Рейтинг и ограничения

Сайт не распространяет и не хранит электронные версии произведений, а лишь предоставляет доступ к создаваемому пользователями каталогу ссылок на торрент-файлы, которые содержат только списки хеш-сумм

[Профиль] [ЛС]
Показать сообщения:    
Ответить на тему

Текущее время: Сегодня 07:02

Часовой пояс: GMT + 4



Вы не можете начинать темы
Вы не можете отвечать на сообщения
Вы не можете редактировать свои сообщения
Вы не можете удалять свои сообщения
Вы не можете голосовать в опросах
Вы не можете прикреплять файлы к сообщениям
Вы не можете скачивать файлы