Несвятые / Ain\'t Them Bodies Saints (Дэвид Лоури / David Lowery) [2013, США, драма, мелодрама, криминал, WEB-DLRip] DVO (Андрей Питерский и Камила Юнусова)

Ответить на тему
 
Автор Сообщение

user ®

Стаж: 7 лет 7 месяцев

Сообщений: 20008

Пост Пост: #1 от 29-Ноя-2013 17:40

[Цитировать]

-Несвятые / Ain't Them Bodies Saints- Страна: США
Жанр: драма, мелодрама, криминал
Год выпуска: 2013
Продолжительность: 01:35:58
Перевод:
Любительский (двухголосый закадровый) [Андрей Питерский и Камила Юнусова]
Cубтитры: нет
Режиссер: Дэвид Лоури / David Lowery
В ролях: Кейси Аффлек, Руни Мара, Бен Фостер, Кит Кэрредин, Кеннади Смит, Джеклинн Смит, Нэйт Паркер, Роберт Лонгстрит, Чарльз Бэйкер, Августин Фриззелл
Описание: Техас, 1970-е годы. Попав в засаду, трое молодых преступников тяжело ранят одного из окруживших их полицейских. Главарь банды Боб Малдун берет всю вину на себя, хотя роковой выстрел сделала его девушка Рут, и отправляется за решетку на много лет. Уже в тюрьме он узнает, что у него родилась дочь Сильвия. Чтобы увидеть девочку Боб совершает побег за побегом, но вырваться на свободу ему удается только через четыре долгих года. Его следы ведут в противоположном от родных мест направлении, однако техасская полиция (и прежде всего Патрик Смоллс — офицер, раненный в той давней перестрелке) считает, что появиться беглец может только там, где находится маленькая Сильвия. Все готово к охоте на Малдуна, но, оказывается, что не только служители закона хотят заставить Боба сполна заплатить по давним счетам.
Качество видео: WEB-DLRip
Формат видео: AVI
Видео: XviD, 23,976fps, 1772 kb/s, 720x304
Аудио:
#1 MP3, 48.0 KHz, 192 kb/s, (2 ch) [Russian]
#2 AC3, 48.0 KHz, 192 kb/s, (2 ch) [English]
- -

MediaInfo

Общее
Полное имя : C:\Раздачи\Aint.Them.Bodies.Saints.2013.L2.WEBDLRip.avi
Формат : AVI
Формат/Информация : Audio Video Interleave
Размер файла : 1,45 Гбайт
Продолжительность : 1 ч. 35 м.
Общий поток : 2170 Кбит/сек
Программа кодирования : VirtualDubMod 1.5.10.3 | www.virtualdub-fr.org || (build 2550/release)
Библиотека кодирования : VirtualDubMod build 2550/release
Видео
Идентификатор : 0
Формат : MPEG-4 Visual
Профиль формата : Advanced Simple@L5
Параметр BVOP формата : 2
Параметр QPel формата : Нет
Параметр GMC формата : Без точки перехода
Параметр матрицы формата : Выборочная
Идентификатор кодека : XVID
Идентификатор кодека/Подсказка : XviD
Продолжительность : 1 ч. 35 м.
Битрейт : 1772 Кбит/сек
Ширина : 720 пикселей
Высота : 304 пикселя
Соотношение сторон : 2,35:1
Частота кадров : 23,976 кадра/сек
Цветовое пространство : YUV
Субдискретизация насыщенности : 4:2:0
Битовая глубина : 8 бит
Тип развёртки : Прогрессивная
Метод сжатия : С потерями
Бит/(Пиксели*Кадры) : 0.338
Размер потока : 1,19 Гбайт (82%)
Библиотека кодирования : XviD 1.2.1 (UTC 2008-12-04)
Аудио #1
Идентификатор : 1
Формат : MPEG Audio
Версия формата : Version 1
Профиль формата : Layer 3
Режим : Joint stereo
Идентификатор кодека : 55
Идентификатор кодека/Подсказка : MP3
Продолжительность : 1 ч. 35 м.
Вид битрейта : Постоянный
Битрейт : 192 Кбит/сек
Каналы : 2 канала
Частота : 48,0 КГц
Метод сжатия : С потерями
Размер потока : 132 Мбайт (9%)
Выравнивание : Соединение по промежуткам
Продолжительность промежутка : 42 мс. (1,00 видеокадр)
Время предзагрузки промежутка : 504 мс.
Аудио #2
Идентификатор : 2
Формат : AC-3
Формат/Информация : Audio Coding 3
Расширение режима : CM (complete main)
Параметр Endianness формата : Big
Идентификатор кодека : 2000
Продолжительность : 1 ч. 35 м.
Вид битрейта : Постоянный
Битрейт : 192 Кбит/сек
Каналы : 2 канала
Расположение каналов : Front: L R
Частота : 48,0 КГц
Битовая глубина : 16 бит
Метод сжатия : С потерями
Размер потока : 132 Мбайт (9%)
Выравнивание : Разделение по промежуткам
Продолжительность промежутка : 42 мс. (1,00 видеокадр)
Время предзагрузки промежутка : 500 мс.

Скриншот c названием фильма

Скриншоты


- -
Скачать

Скачать торрент!

Как скачивать? · Что такое торрент? · Рейтинг и ограничения

Сайт не распространяет и не хранит электронные версии произведений, а лишь предоставляет доступ к создаваемому пользователями каталогу ссылок на торрент-файлы, которые содержат только списки хеш-сумм

[Профиль] [ЛС]
Показать сообщения:    
Ответить на тему

Текущее время: Сегодня 16:16

Часовой пояс: GMT + 4



Вы не можете начинать темы
Вы не можете отвечать на сообщения
Вы не можете редактировать свои сообщения
Вы не можете удалять свои сообщения
Вы не можете голосовать в опросах
Вы не можете прикреплять файлы к сообщениям
Вы не можете скачивать файлы