Перси Джексон и Море чудовищ / Percy Jackson: Sea of Monsters (Тор Фройденталь / Thor Freudenthal) [2013, США, Фэнтези, Приключения, Семейный, BDRip-AVC] Dub (CEE) + Original (English) + Subs (Rus, Eng)

Ответить на тему
 
Автор Сообщение

user ®

Стаж: 7 лет 7 месяцев

Сообщений: 20008

Пост Пост: #1 от 29-Ноя-2013 17:40

[Цитировать]

Перси Джексон и Море чудовищ / Percy Jackson: Sea of Monsters«Где Боги - там и монстры»- Страна: США
Жанр: Фэнтези, Приключения, Семейный
Год выпуска: 2013
Продолжительность: 01:46:07-Перевод: Профессиональный (полное дублирование, CEE)
Оригинальная аудиодорожка: Английский
Cубтитры: Русские (полные), Английские (полные) (*srt)-Режиссер: Тор Фройденталь / Thor Freudenthal-В ролях: Логан Лерман, Александра Даддарио, Дуглас Смит, Ливэн Рамбин, Брэндон Т. Джексон, Джейк Эйбел, Энтони Хэд, Стэнли Туччи, Коннор Крэш Данн, Палома Квиатковски и др.-Описание:Лагерь полукровок атакует Люк Кастеллан, который раскрывает свои планы по уничтожению горы Олимп. Наставник Перси, Хирон узнает, что Люк отравил волшебное дерево, которое отвечает за барьер, защищающий Лагерь Полукровок, и которое создано из Талии Грейс, дочери Зевса, убитой циклопом. Аннабет Чейз выясняет, что Золотое Руно может восстановить дерево, и директор лагеря, Дионис, посылает Клариссу Ла Ру, дочь Ареса и соперницу Перси, найти его…-Релиз от -
Автор: AngelOfTrue-Качество видео: BDRip-AVC | Percy Jackson: Sea of Monsters (2013) Blu-ray EUR 1080p AVC DTS 5.1
Формат видео: MKV-Видео: 1040x442p (2,35:1), 23,976 fps, x264 ~2040 kbps avg, 0.185 bit/pixel
Аудио #1: AC3 Dolby Digital / 48 KHz / 448 kbps / 3/2 (L,C,R,l,r) + LFE ch| Dub (CEE)
Аудио #2: AC3 Dolby Digital / 48 KHz / 448 kbps / 3/2 (L,C,R,l,r) + LFE ch| Original (English)-

-

x264 log

avs [info]: 1040x442p 1:1 @ 2997/125 fps (cfr)
x264 [warning]: --psnr used with psy on: results will be invalid!
x264 [warning]: --tune psnr should be used if attempting to benchmark psnr!
x264 [info]: using SAR=1/1
x264 [info]: using cpu capabilities: MMX2 SSE2Fast SSSE3 SSE4.2 AVX AVX2 FMA3 LZCNT BMI1 BMI2
x264 [info]: profile High, level 3.2
x264 [info]: frame I:1333 Avg QP:16.59 size: 60075 PSNR Mean Y:46.79 U:49.91 V:50.36 Avg:47.63 Global:47.08
x264 [info]: frame P:32640 Avg QP:19.66 size: 20635 PSNR Mean Y:45.29 U:48.67 V:48.84 Avg:46.11 Global:45.33
x264 [info]: frame B:118690 Avg QP:20.97 size: 7324 PSNR Mean Y:44.89 U:48.29 V:48.57 Avg:45.73 Global:44.98
x264 [info]: consecutive B-frames: 1.9% 1.7% 8.3% 19.6% 19.5% 41.4% 5.6% 2.0%
x264 [info]: mb I I16..4: 6.7% 77.3% 16.0%
x264 [info]: mb P I16..4: 0.8% 8.9% 1.2% P16..4: 32.3% 37.3% 12.4% 1.8% 0.2% skip: 5.2%
x264 [info]: mb B I16..4: 0.1% 1.0% 0.1% B16..8: 36.5% 21.8% 3.4% direct: 5.0% skip:32.0% L0:41.5% L1:45.6% BI:12.8%
x264 [info]: 8x8 transform intra:81.2% inter:64.0%
x264 [info]: direct mvs spatial:97.7% temporal:2.3%
x264 [info]: coded y,uvDC,uvAC intra: 88.5% 84.2% 64.0% inter: 23.9% 23.4% 10.3%
x264 [info]: i16 v,h,dc,p: 14% 11% 8% 67%
x264 [info]: i8 v,h,dc,ddl,ddr,vr,hd,vl,hu: 6% 7% 4% 11% 16% 14% 16% 12% 15%
x264 [info]: i4 v,h,dc,ddl,ddr,vr,hd,vl,hu: 8% 7% 3% 10% 17% 15% 16% 11% 14%
x264 [info]: i8c dc,h,v,p: 43% 23% 16% 18%
x264 [info]: Weighted P-Frames: Y:5.4% UV:2.7%
x264 [info]: ref P L0: 50.9% 8.9% 16.4% 7.1% 5.2% 3.8% 3.1% 1.8% 1.5% 1.2% 0.2% 0.0%
x264 [info]: ref B L0: 77.3% 11.8% 4.7% 2.2% 1.5% 1.1% 0.8% 0.3% 0.2%
x264 [info]: ref B L1: 93.7% 6.3%
x264 [info]: SSIM Mean Y:0.9797165 (16.929db)
x264 [info]: PSNR Mean Y:44.995 U:48.384 V:48.644 Avg:45.824 Global:45.068 kb/s:2039.10
x264 [total]: encoded 152663 frames, 8.63 fps, 2039.11 kb/s

-

MediaInfo

Формат : Matroska
Версия формата : Version 4 / Version 2
Размер файла : 2,18 Гбайт
Продолжительность : 1 ч. 46 м.
Общий поток : 2937 Кбит/сек
Дата кодирования : UTC 2013-11-29 10:55:08
Программа кодирования : mkvmerge v6.1.0 ('Old Devil') built on Mar 4 2013 09:10:42
Библиотека кодирования : libebml v1.3.0 + libmatroska v1.4.0
Видео
Идентификатор : 1
Формат : AVC
Формат/Информация : Advanced Video Codec
Профиль формата : High@L3.2
Параметр CABAC формата : Да
Параметр ReFrames формата : 10 кадров
Идентификатор кодека : V_MPEG4/ISO/AVC
Продолжительность : 1 ч. 46 м.
Битрейт : 2040 Кбит/сек
Ширина : 1040 пикселей
Высота : 442 пикселя
Соотношение сторон : 2,35:1
Режим частоты кадров : Постоянный
Частота кадров : 23,976 кадра/сек
Цветовое пространство : YUV
Субдискретизация насыщенности : 4:2:0
Битовая глубина : 8 бит
Тип развёртки : Прогрессивная
Бит/(Пиксели*Кадры) : 0.185
Размер потока : 1,47 Гбайт (68%)
Заголовок : Persi.Dzhekson.I.More.Chudovishh.2013.DUAL.BDRip-AVC.AC3.-HQ-ViDEO
Библиотека кодирования : x264 core 130 r2273 b3065e6
Настройки программы : cabac=1 / ref=10 / deblock=1:-3:-2 / analyse=0x3:0x133 / me=umh / subme=11 / psy=1 / psy_rd=1.00:0.03 / mixed_ref=1 / me_range=32 / chroma_me=1 / trellis=2 / 8x8dct=1 / cqm=0 / deadzone=21,11 / fast_pskip=0 / chroma_qp_offset=-3 / threads=6 / lookahead_threads=1 / sliced_threads=0 / nr=0 / decimate=0 / interlaced=0 / bluray_compat=0 / constrained_intra=0 / bframes=7 / b_pyramid=2 / b_adapt=2 / b_bias=0 / direct=3 / weightb=1 / open_gop=0 / weightp=2 / keyint=240 / keyint_min=23 / scenecut=40 / intra_refresh=0 / rc_lookahead=60 / rc=2pass / mbtree=0 / bitrate=2040 / ratetol=1.0 / qcomp=0.60 / qpmin=0 / qpmax=69 / qpstep=4 / cplxblur=20.0 / qblur=0.5 / vbv_maxrate=20000 / vbv_bufsize=20000 / nal_hrd=none / ip_ratio=1.30 / pb_ratio=1.20 / aq=2:1.00
Язык : Russian
Default : Да
Forced : Нет
Основные цвета : BT.709
Характеристики трансфера : BT.709
Аудио #1
Идентификатор : 2
Формат : AC-3
Формат/Информация : Audio Coding 3
Расширение режима : CM (complete main)
Параметр Endianness формата : Big
Идентификатор кодека : A_AC3
Продолжительность : 1 ч. 46 м.
Вид битрейта : Постоянный
Битрейт : 448 Кбит/сек
Каналы : 6 каналов
Расположение каналов : Front: L C R, Side: L R, LFE
Частота : 48,0 КГц
Битовая глубина : 16 бит
Метод сжатия : С потерями
Размер потока : 340 Мбайт (15%)
Заголовок : Dub (CEE)
Язык : Russian
Default : Да
Forced : Нет
Аудио #2
Идентификатор : 3
Формат : AC-3
Формат/Информация : Audio Coding 3
Расширение режима : CM (complete main)
Параметр Endianness формата : Big
Идентификатор кодека : A_AC3
Продолжительность : 1 ч. 46 м.
Вид битрейта : Постоянный
Битрейт : 448 Кбит/сек
Каналы : 6 каналов
Расположение каналов : Front: L C R, Side: L R, LFE
Частота : 48,0 КГц
Битовая глубина : 16 бит
Метод сжатия : С потерями
Размер потока : 340 Мбайт (15%)
Заголовок : Original (English)
Язык : English
Default : Нет
Forced : Нет
Текст #1
Идентификатор : 4
Формат : UTF-8
Идентификатор кодека : S_TEXT/UTF8
Идентификатор кодека/Информация : UTF-8 Plain Text
Заголовок : Russian (full Blu-ray EUR)
Язык : Russian
Default : Нет
Forced : Нет
Текст #2
Идентификатор : 5
Формат : UTF-8
Идентификатор кодека : S_TEXT/UTF8
Идентификатор кодека/Информация : UTF-8 Plain Text
Заголовок : English (full)
Язык : English
Default : Нет
Forced : Нет

-

Скриншоты



-Дополнительная информация: -Приятного вам просмотра!
Скачать

Скачать торрент!

Как скачивать? · Что такое торрент? · Рейтинг и ограничения

Сайт не распространяет и не хранит электронные версии произведений, а лишь предоставляет доступ к создаваемому пользователями каталогу ссылок на торрент-файлы, которые содержат только списки хеш-сумм

[Профиль] [ЛС]
Показать сообщения:    
Ответить на тему

Текущее время: Сегодня 10:05

Часовой пояс: GMT + 4



Вы не можете начинать темы
Вы не можете отвечать на сообщения
Вы не можете редактировать свои сообщения
Вы не можете удалять свои сообщения
Вы не можете голосовать в опросах
Вы не можете прикреплять файлы к сообщениям
Вы не можете скачивать файлы