Приливы / The Hot Flashes (Сьюзэн Сейдельман / Susan Seidelman) [2013, США, Комедия, WEB-DLRip] DVO (студия Elrom)

Ответить на тему
 
Автор Сообщение

user ®

Стаж: 7 лет 7 месяцев

Сообщений: 20008

Пост Пост: #1 от 29-Ноя-2013 11:20

[Цитировать]

Приливы / The Hot Flashes
Страна: США
Жанр: Комедия
Год выпуска: 2013
Продолжительность: 01:39:34
Перевод: Профессиональный (двухголосый закадровый) [студия Elrom]
Cубтитры: нет
Оригинальная аудиодорожка: нет
Режиссер: Сьюзэн Сейдельман / Susan Seidelman
В ролях: Брук Шилдс /Brooke Shields/, Дэрил Ханна /Daryl Hannah/, Шарлотт Грэхэм /Charlotte Graham/, Карл Палмер /Carl Palmer/, Ванда Сайкес /Wanda Sykes/, Эрик Робертс /Eric Roberts/, Джессика Ротэ /Jessica Rothe/, Андреа Франкл /Andrea Frankle/
Описание: Пять "бабушек" бальзаковского возраста собрались в команду и решили вздрючить местных баскетбольных чемпионов. Все они когда-то в школе и колледже кидали мяч в кольцо и сейчас они решили бросить вызов команде не знающей поражений. Денежный приз они собираются пожертвовать на борьбу с раком груди.

Сэмпл: http://multi-up.com/927720
Качество видео: WEB-DLRip (Исх. WEB-DL 720p)
Формат видео: AVI
Видео: 720x384 (1.88:1), 23.976 fps, XviD build 50 ~1887 kbps avg, 0.28 bit/pixel
Аудио: 48 kHz, AC3 Dolby Digital, 2/0 (L,R) ch, ~192.00 kbps avg

MediaInfo

Общее
Полное имя : S:ФильмыПриливы. 2013. WEB-DLRip.avi
Формат : AVI
Формат/Информация : Audio Video Interleave
Размер файла : 1,45 Гбайт
Продолжительность : 1 ч. 39 м.
Общий поток : 2089 Кбит/сек
Программа кодирования : VirtualDubMod 1.5.10.3 | www.virtualdub-fr.org || (build 2550/release)
Библиотека кодирования : VirtualDubMod build 2550/release
Видео
Идентификатор : 0
Формат : MPEG-4 Visual
Профиль формата : Advanced Simple@L5
Параметр BVOP формата : 2
Параметр QPel формата : Нет
Параметр GMC формата : Без точки перехода
Параметр матрицы формата : Выборочная
Идентификатор кодека : XVID
Идентификатор кодека/Подсказка : XviD
Продолжительность : 1 ч. 39 м.
Битрейт : 1887 Кбит/сек
Ширина : 720 пикс.
Высота : 384 пикс.
Соотношение сторон : 1,875
Частота кадров : 23,976 кадр/сек
Цветовое пространство : YUV
Подвыборка цветности : 4:2:0
Битовая глубина : 8 бит
Тип развёртки : Прогрессивная
Метод сжатия : С потерями
Бит/(Пиксели*Кадры) : 0.285
Размер потока : 1,31 Гбайт (90%)
Библиотека кодирования : XviD 1.2.1 (UTC 2008-12-04)
Аудио
Идентификатор : 1
Формат : AC-3
Формат/Информация : Audio Coding 3
Расширение режима : CM (complete main)
Идентификатор кодека : 2000
Продолжительность : 1 ч. 39 м.
Вид битрейта : Постоянный
Битрейт : 192 Кбит/сек
Каналы : 2 канала
Расположение каналов : Front: L R
Частота : 48,0 КГц
Битовая глубина : 16 бит
Метод сжатия : С потерями
Размер потока : 137 Мбайт (9%)
Выравнивание : Разделение по промежуткам
Продолжительность промежутка : 42 мс. (1,00 видеокадр)
Время предзагрузки промежутка : 500 ms

Скриншот c названием фильма

Скриншоты

Скачать

Скачать торрент!

Как скачивать? · Что такое торрент? · Рейтинг и ограничения

Сайт не распространяет и не хранит электронные версии произведений, а лишь предоставляет доступ к создаваемому пользователями каталогу ссылок на торрент-файлы, которые содержат только списки хеш-сумм

[Профиль] [ЛС]
Показать сообщения:    
Ответить на тему

Текущее время: Сегодня 07:54

Часовой пояс: GMT + 4



Вы не можете начинать темы
Вы не можете отвечать на сообщения
Вы не можете редактировать свои сообщения
Вы не можете удалять свои сообщения
Вы не можете голосовать в опросах
Вы не можете прикреплять файлы к сообщениям
Вы не можете скачивать файлы