Весёлый цыплёнок (Цезарь Оршанский) [1973, Рисованный мультфильм, DVDRip]

Ответить на тему
 
Автор Сообщение

user ®

Стаж: 7 лет 7 месяцев

Сообщений: 20008

Пост Пост: #1 от 29-Ноя-2013 02:45

[Цитировать]

Весёлый цыплёнок
Страна: СССР
Жанр: Рисованный мультфильм
Продолжительность: 00:08:15
Год выпуска: 1973
Русские субтитры: нет
Режиссёр: Цезарь Оршанский
Роли озвучивали: Г.Кислюк,Л.Козуб,А.Осинская,В.Коршун
Описание: Родился цыпленок и широко открытыми глазами посмотрел на мир, на небо синее, на солнце ясное и сделал вывод ко-ко-е все красивое! И так маленький цыпленок подчинил себе лису, волка и медведя..."Ко-...-ко-ро-ко-ко"
Доп. информация:
Выпущено:«Киевнаучфильм»
Директор:И.Мазепа
Оператор:А.Гаврилов
Редактор:И.Куценко
Художник-мультипликатор:И.Марченкова
Качество: DVDRip
Формат: AVI
Видео: 704x528 (1.33:1), 25 fps, XviD MPEG-4 ~2300 kbps avg, 0.25 bit/pixel
Аудио: 48 kHz, AC3 Dolby Digital, 2/0 (L,R) ch, ~192.00 kbps avg
Субтитры: нет

Подробные технические данные

Format : AVIFormat/Info : Audio Video InterleaveFile size : 148 MiBDuration : 8mn 15sOverall bit rate : 2 502 KbpsWriting application : VirtualDubModRus 1.5.10.2 (build 2542/release)Copyright : Rutracker.orgComment : DVDRip by dvdss
VideoID : 0Format : MPEG-4 VisualFormat profile : Advanced Simple@L5Format settings, BVOP : 2Format settings, QPel : NoFormat settings, GMC : No warppointsFormat settings, Matrix : CustomCodec ID : XVIDCodec ID/Hint : XviDDuration : 8mn 15sBit rate : 2 300 KbpsWidth : 704 pixelsHeight : 528 pixelsDisplay aspect ratio : 5:4Original display aspect ratio : 4:3Frame rate : 25.000 fpsColor space : YUVChroma subsampling : 4:2:0Bit depth : 8 bitsScan type : ProgressiveCompression mode : LossyBits/(Pixel*Frame) : 0.248Stream size : 136 MiB (92%)Writing library : XviD 65
AudioID : 1Format : AC-3Format/Info : Audio Coding 3Mode extension : CM (complete main)Format settings, Endianness : BigCodec ID : 2000Duration : 8mn 15sBit rate mode : ConstantBit rate : 192 KbpsChannel(s) : 2 channelsChannel positions : Front: L RSampling rate : 48.0 KHzBit depth : 16 bitsCompression mode : LossyDelay relative to video : 16msStream size : 11.3 MiB (8%)Alignment : Split accross interleavesInterleave, duration : 40 ms (1.00 video frame)Interleave, preload duration : 500 ms

сравнение

Сравнение с [url=http://***/forum/viewtopic.php?t=1156893]http://***/forum/viewtopic.php?t=1156893[/url]
Тут -- http://screenshotcomparison.com/comparison/50691/picture:0

Скриншоты

Скачать

Скачать торрент!

Как скачивать? · Что такое торрент? · Рейтинг и ограничения

Сайт не распространяет и не хранит электронные версии произведений, а лишь предоставляет доступ к создаваемому пользователями каталогу ссылок на торрент-файлы, которые содержат только списки хеш-сумм

[Профиль] [ЛС]
Показать сообщения:    
Ответить на тему

Текущее время: Сегодня 00:38

Часовой пояс: GMT + 4



Вы не можете начинать темы
Вы не можете отвечать на сообщения
Вы не можете редактировать свои сообщения
Вы не можете удалять свои сообщения
Вы не можете голосовать в опросах
Вы не можете прикреплять файлы к сообщениям
Вы не можете скачивать файлы