И вспыхнет пламя / The Hunger Games: Catching Fire (Френсис Лоуренс / Francis Lawrence) [2013 г., фантастика, боевик, триллер, приключения, TS Proper] Dub

Ответить на тему
 
Автор Сообщение

Lord ®

Пол:

Стаж: 3 года

Сообщений: 4

Пост Пост: #1 от 28-Ноя-2013 23:11

[Цитировать]

--Голодные игры: И вспыхнет пламя
The Hunger Games: Catching Fire
- «Помни, кто твой настоящий враг»- Год выпуска: 2013
Страны: США
Жанры: фантастика, боевик, триллер, приключения, ... слова
Продолжительность: 02:15:09
Перевод: Профессиональный (дублированный)--Режиссер: Френсис Лоуренс
Сценарий: Саймон Бофой, Майкл Арндт, Сьюзен Коллинз
Продюсер: Нина Джейкобсон, Джон Килик, Сьюзен Коллинз, ...
Оператор: Джо Уиллемс
Композитор: Джеймс Ньютон Ховард
Художник: Филип Мессина, Джон Коллинз, Адам Дэвис, ...
Монтаж: Алан Эдвард Белл-Субтитры: Нет- -Описание:
Сумев выжить на безжалостных Голодных играх, Китнисс Эвердин и Пит Мелларк возвращаются домой. Но теперь они в еще большей опасности, так как своим отказом играть по правилам на Арене бросили вызов Капитолию. По традиции следующие, юбилейные, Голодные игры должны стать особенными, и в этот раз в них участвуют только победители прошлых лет. Китнисс и Пит вынуждены вновь выйти на Арену, где будут соперничать с сильнейшими. Правила игры меняются. Арена еще опасней, масштаб еще больше, ставки еще выше!-Бюджет: $130 000 000
Сборы в США: $186 356 317 var is_usa_box_popup = true;
Сборы в мире: + $146 600 000 = $332 956 317 сборы var is_world_box_popup = true;
Сборы в России: $11 522 996 var is_rus_box_popup = true;
Зрители: 2.48 млн 2.39 млн 1.59 млн
Премьера (мир): 11 ноября 2013, ...
Премьера (РФ): 21 ноября 2013, «Вольга»
Рейтинг MPAA: -

МедиаИнфо

General
Complete name : E:\Torrents!!!!!!!!!!!!!!!!!!!!!!!!!\Golodnie.igry.2.2013_D.TS.PROPER.1400MB.avi
Format : AVI
Format/Info : Audio Video Interleave
File size : 1.37 GiB
Duration : 2h 15mn
Overall bit rate : 1 453 Kbps
Writing application : VirtualDubMod 1.5.10.2 (build 2540/release)
Writing library : VirtualDubMod build 2540/release
Video #0
ID : 0
Format : MPEG-4 Visual
Format profile : Advanced Simple@L5
Format settings, BVOP : 2
Format settings, QPel : No
Format settings, GMC : No warppoints
Format settings, Matrix : Default (MPEG)
Muxing mode : Packed bitstream
Codec ID : XVID
Codec ID/Hint : XviD
Duration : 2h 15mn
Bit rate : 1 313 Kbps
Width : 720 pixels
Height : 304 pixels
Display aspect ratio : 2.35:1
Frame rate : 29.970 fps
Color space : YUV
Chroma subsampling : 4:2:0
Bit depth : 8 bits
Scan type : Progressive
Compression mode : Lossy
Bits/(Pixel*Frame) : 0.200
Stream size : 1.24 GiB (90%)
Writing library : XviD 73
Audio #1
ID : 1
Format : AC-3
Format/Info : Audio Coding 3
Mode extension : CM (complete main)
Format settings, Endianness : Big
Codec ID : 2000
Duration : 2h 15mn
Bit rate mode : Constant
Bit rate : 128 Kbps
Channel count : 2 channels
Channel positions : Front: L R
Sampling rate : 48.0 KHz
Bit depth : 16 bits
Compression mode : Lossy
Stream size : 124 MiB (9%)
Alignment : Split accross interleaves
Interleave, duration : 33 ms (1.00 video frame)
Interleave, preload duration : 500 ms
-Качество: TeleSynch
Формат: AVI
Видео кодек: XviD
Аудио кодек: AC3
Видео: 720x304; 1313 kbps; 29.970 fps; 0.200 Bit/Pixel
Аудио : 128 kbps; 2 ch; 48.0 KHz (Rus)--

Скриншоты

Скачать

Скачать торрент!

Как скачивать? · Что такое торрент? · Рейтинг и ограничения

Сайт не распространяет и не хранит электронные версии произведений, а лишь предоставляет доступ к создаваемому пользователями каталогу ссылок на торрент-файлы, которые содержат только списки хеш-сумм

[Профиль] [ЛС]
Показать сообщения:    
Ответить на тему

Текущее время: Сегодня 13:53

Часовой пояс: GMT + 4



Вы не можете начинать темы
Вы не можете отвечать на сообщения
Вы не можете редактировать свои сообщения
Вы не можете удалять свои сообщения
Вы не можете голосовать в опросах
Вы не можете прикреплять файлы к сообщениям
Вы не можете скачивать файлы