Джунгли / The Jungle (Эндрю Трауки / Andrew Traucki) [2013 г., триллер, DVDRip]

Ответить на тему
 
Автор Сообщение

Lord ®

Пол:

Стаж: 3 года

Сообщений: 4

Пост Пост: #1 от 28-Ноя-2013 22:48

[Цитировать]

- -Джунгли / The Jungle -«Новый хищник выходит на охоту» - Год выпуска: 2013
Страна: Австралия / Hyrax Entertainment, Crafted Films, Royalty Rope
Жанр: триллер
Продолжительность: 01:21:14
Перевод: Профессиональный (многоголосый, закадровый)
Режиссер: Эндрю Трауки / Andrew Traucki
В ролях: Игусти Будиантхика, Руперт Рейд, Мишель Сантос, Агос Виджайя Соджарво
Описание: Исследовательская экспедиция отправляется в индонезийские джунгли, чтобы снять на видео редкий вид пятнистых леопардов, занесенных в Красную книгу. Идя по их следам, путешественники забираются глубоко в джунгли, где еще никто не бывал. Там они встречают новый вид хищника, неизвестный до этого человечеству…

Качество: DVDRip
Формат: AVI
Видео кодек: XviD
Аудио кодек: MP3
Видео: 640x352 (1.82:1), 25 fps, XviD build 50 ~1065 kbps avg, 0.19 bit/pixel
Аудио: 48 kHz, MPEG Layer 3, 2 ch, ~128.00 kbps avg

Mediainfo

General
Complete name : F:\КИНО\Dzhungli.2013.P.DVDRip.700Mb.avi
Format : AVI
Format/Info : Audio Video Interleave
File size : 699 MiB
Duration : 1h 21mn
Overall bit rate : 1 204 Kbps
Writing application : VirtualDubMod 1.5.10.3 | www.virtualdub-fr.org || (build 2550/release)
Writing library : VirtualDubMod build 2550/release
Video
ID : 0
Format : MPEG-4 Visual
Format profile : Advanced Simple@L5
Format settings, BVOP : 2
Format settings, QPel : No
Format settings, GMC : No warppoints
Format settings, Matrix : Default (MPEG)
Codec ID : XVID
Codec ID/Hint : XviD
Duration : 1h 21mn
Bit rate : 1 066 Kbps
Width : 640 pixels
Height : 352 pixels
Display aspect ratio : 16:9
Frame rate : 25.000 fps
Color space : YUV
Chroma subsampling : 4:2:0
Bit depth : 8 bits
Scan type : Progressive
Compression mode : Lossy
Bits/(Pixel*Frame) : 0.189
Stream size : 619 MiB (89%)
Writing library : XviD 1.2.1 (UTC 2008-12-04)
Audio
ID : 1
Format : MPEG Audio
Format version : Version 1
Format profile : Layer 3
Codec ID : 55
Codec ID/Hint : MP3
Duration : 1h 21mn
Bit rate mode : Constant
Bit rate : 128 Kbps
Channel(s) : 2 channels
Sampling rate : 48.0 KHz
Compression mode : Lossy
Stream size : 74.4 MiB (11%)
Alignment : Aligned on interleaves
Interleave, duration : 40 ms (1.00 video frame)
Interleave, preload duration : 504 ms
Writing library : LAME3.98r
Encoding settings : -m s -V 4 -q 2 -lowpass 17 -b 128

Скриншоты

Скачать

Скачать торрент!

Как скачивать? · Что такое торрент? · Рейтинг и ограничения

Сайт не распространяет и не хранит электронные версии произведений, а лишь предоставляет доступ к создаваемому пользователями каталогу ссылок на торрент-файлы, которые содержат только списки хеш-сумм

[Профиль] [ЛС]
Показать сообщения:    
Ответить на тему

Текущее время: Сегодня 01:51

Часовой пояс: GMT + 4



Вы не можете начинать темы
Вы не можете отвечать на сообщения
Вы не можете редактировать свои сообщения
Вы не можете удалять свои сообщения
Вы не можете голосовать в опросах
Вы не можете прикреплять файлы к сообщениям
Вы не можете скачивать файлы