Спасти Санту / Saving Santa (Леон Джусен, Аарон Силман / Juice Leon, Aaron Silman) [2013, мультфильм, мюзикл, комедия, семейный, HDRip] Dub

Ответить на тему
 
Автор Сообщение

user ®

Стаж: 13 лет

Сообщений: 15041

Пост Пост: #1 от 28-Ноя-2013 20:25

[Цитировать]

Спасти Санту / Saving Santa
Страна: Великобритания
Жанр: мультфильм, мюзикл, комедия, семейный
Продолжительность: 01:23:54
Год выпуска: 2013
Перевод: Профессиональный (дублированный)
Русские субтитры: нет
Режиссёр: Леон Джусен, Аарон Силман / Juice Leon, Aaron Silman
Роли озвучивали: Владислав Лисовец, Алексей Чумаков, Юлия Ковальчук, Михаил Пореченков
Описание:
Эльф Бернард — очень мил, весел, и… слегка несерьёзен. Но ему придется измениться, ведь у него впереди потрясающее и очень опасное приключение! Кто-то собирается похитить Санту и его волшебные сани, в которых можно перемещаться в разные эпохи. А без Санты Новый год никогда не наступит! Бернарду придётся переместиться во времени, сразиться со злодеем, остановить его армию, изменить прошлое, спасти Новый год и стать настоящим героем!
Семпл: http://multi-up.com/927383
Качество: HDRip [рип с BDRip 1080p]
Формат: AVI
Видео: Xvid 720x384, 1898 kb/s 23.976fps
Аудио: Russian: Dolby AC3 48000Hz stereo 192kbps
Аудио 2: English: Dolby AC3 48000Hz 6ch 384kbps
Субтитры: отсутствуют

Подробные технические данные

GeneralComplete name : F:\КИНО\Spasti.Santu.2013.D.HDRip.1400MB.aviFormat : AVIFormat/Info : Audio Video InterleaveFile size : 1.46 GiBDuration : 1h 23mnOverall bit rate : 2 490 KbpsWriting application : VirtualDubMod 1.5.10.2 (build 2540/release)Writing library : VirtualDubMod build 2540/release
VideoID : 0Format : MPEG-4 VisualFormat profile : Advanced Simple@L5Format settings, BVOP : 2Format settings, QPel : NoFormat settings, GMC : No warppointsFormat settings, Matrix : CustomCodec ID : XVIDCodec ID/Hint : XviDDuration : 1h 23mnBit rate : 1 900 KbpsWidth : 720 pixelsHeight : 384 pixelsDisplay aspect ratio : 1.875Frame rate : 23.976 fpsColor space : YUVChroma subsampling : 4:2:0Bit depth : 8 bitsScan type : ProgressiveCompression mode : LossyBits/(Pixel*Frame) : 0.287Stream size : 1.11 GiB (76%)Writing library : XviD 1.2.1 (UTC 2008-12-04)
Audio #1ID : 1Format : AC-3Format/Info : Audio Coding 3Mode extension : CM (complete main)Codec ID : 2000Duration : 1h 23mnBit rate mode : ConstantBit rate : 192 KbpsChannel(s) : 2 channelsChannel positions : Front: L RSampling rate : 48.0 KHzBit depth : 16 bitsCompression mode : LossyStream size : 115 MiB (8%)Alignment : Split accross interleavesInterleave, duration : 42 ms (1.00 video frame)Interleave, preload duration : 500 ms
Audio #2ID : 2Format : AC-3Format/Info : Audio Coding 3Mode extension : CM (complete main)Codec ID : 2000Duration : 1h 23mnBit rate mode : ConstantBit rate : 384 KbpsChannel(s) : 6 channelsChannel positions : Front: L C R, Side: L R, LFESampling rate : 48.0 KHzBit depth : 16 bitsCompression mode : LossyStream size : 230 MiB (15%)Alignment : Split accross interleavesInterleave, duration : 42 ms (1.00 video frame)Interleave, preload duration : 500 ms

Скриншоты





Скачать

Скачать торрент! Спасти Санту / Saving Santa (Леон Джусен, Аарон Силман / Juice Leon, Aaron Silman) [2013, мультфильм, мюзикл, комедия, семейный, HDRip] Dub

Как скачивать? · Что такое торрент? · Рейтинг и ограничения

Сайт не распространяет и не хранит электронные версии произведений, а лишь предоставляет доступ к создаваемому пользователями каталогу ссылок на торрент-файлы, которые содержат только списки хеш-сумм

[Профиль] [ЛС]
Показать сообщения:    
Ответить на тему

Текущее время: Сегодня 23:56

Часовой пояс: GMT + 4



Вы не можете начинать темы
Вы не можете отвечать на сообщения
Вы не можете редактировать свои сообщения
Вы не можете удалять свои сообщения
Вы не можете голосовать в опросах
Вы не можете прикреплять файлы к сообщениям
Вы не можете скачивать файлы