Да или Нет - 2 / Yes or No 2 / Rak Mai Rak Ya Kak Loei (Саратсвади Вонгсомпхет / Saratswadee Wongsomphet) [2012, Таиланд, мелодрама, комедия, DVDRip-AVC] Sub Rus, Eng

Ответить на тему
 
Автор Сообщение

user ®

Стаж: 11 лет

Сообщений: 15151

Пост Пост: #1 от 28-Ноя-2013 20:25

[Цитировать]

Да или Нет - 2 / Yes or No 2 / Rak Mai Rak Ya Kak Loei
Страна: Таиланд
Жанр: мелодрама, комедия
Год выпуска: 2012
Продолжительность: 1:47:54
Перевод: Русские субтитры
Cубтитры: Русские, английские
Оригинальная аудиодорожка: тайская
Режиссер: Саратсвади Вонгсомпхет / Saratswadee Wongsomphet
В ролях: Сушар Маняин (Sushar Manaying)
Супанар Джиталила (Supanart Jittaleela)
Ниса Бунсантеар (Nisa Boonsantear)
Описание: Это продолжение тайской мелодрамы "Да или Нет". В Таиланде, как известно, много милых, нежных, красивых таек (а других в этом фильме просто нет). Многим тайкам нравятся тайцы, а вот некоторым ... другие тайки. Но не такие милые и нежные, как они сами, а высокие, с короткой прической, широкими плечами, одетые в джинсы и куртку. Их называют томбоями. Фильм рассказывает об одной такой парочке - таечка Пхай и томбой Ким. Судя по фильму, чем красивее тайка, тем ей больше нравятся томбои, а постольку в фильме все тайки красивые, то на томбоев спрос повышен. И, к несчастью, главным героям фильма предстоит вынужденная разлука на несколько месяцев. Им приходится иметь дело с новыми людьми, заводить новые знакомства, общаться. А, учитывая то, что красивых таек много, а томбоев мало и на всех не хватает, то ситуация накаляется. У героев фильма возникают симпатии, увлечения, ревность, ссоры, любовные треугольники и прочее. Что из этого выйдет - смотрите.
Доп. информация:
Кинопоиск=7.111
IMDB=6.5
Сэмпл: http://multi-up.com/927589
Качество видео: DVDRip-AVC
Формат видео: MKV
Видео: V_MPEG4/ISO/AVC; 720x544@998x544 (AR 1.85:1); 25,000 кадров/сек; 1472 Кбит/сек ; 0.150 bit/pixel
Аудио: (Тайский язык) AC-3; 48,0 КГц; 6 каналов; Front: L C R, Side: L R, LFE
Формат субтитров: softsub (SRT)
Доп. информация о субтитрах: Русские, Английские

MediaInfo

Общее
Уникальный идентификатор : 175363833959287274568164050516091146628 (0x83EDD88CCD6AAF2886F84C5FC4F51184)
Полное имя : K:\YesOrNo-2.2012.DVDRip.mkv
Формат : Matroska
Версия формата : Version 2
Размер файла : 1,45 Гбайт
Продолжительность : 1 ч. 47 м.
Общий поток : 1922 Кбит/сек
Дата кодирования : UTC 2013-11-27 20:47:22
Программа кодирования : mkvmerge v5.8.0 ('No Sleep / Pillow') built on Sep 2 2012 15:37:04
Библиотека кодирования : libebml v1.2.3 + libmatroska v1.3.0
Видео
Идентификатор : 1
Формат : AVC
Формат/Информация : Advanced Video Codec
Профиль формата : Main@L3.2
Параметр CABAC формата : Да
Параметр ReFrames формата : 3 кадра
Идентификатор кодека : V_MPEG4/ISO/AVC
Продолжительность : 1 ч. 47 м.
Битрейт : 1472 Кбит/сек
Ширина : 720 пикселей
Высота : 544 пикселя
Соотношение сторон : 1,85:1
Соотношение сторон в оригинале : 1,85:1
Режим частоты кадров : Постоянный
Частота кадров : 25,000 кадров/сек
Цветовое пространство : YUV
Субдискретизация насыщенности : 4:2:0
Битовая глубина : 8 бит
Тип развёртки : Прогрессивная
Бит/(Пиксели*Кадры) : 0.150
Размер потока : 1,08 Гбайт (75%)
Заголовок : Yes or No - 2
Библиотека кодирования : x264 core 125 r2200 999b753
Настройки программы : cabac=1 / ref=4 / deblock=1:1:-1 / analyse=0x1:0x131 / me=umh / subme=7 / psy=1 / psy_rd=1.00:0.06 / mixed_ref=1 / me_range=16 / chroma_me=1 / trellis=2 / 8x8dct=0 / cqm=0 / deadzone=21,11 / fast_pskip=0 / chroma_qp_offset=-3 / threads=6 / lookahead_threads=1 / sliced_threads=0 / nr=0 / decimate=1 / interlaced=0 / bluray_compat=0 / constrained_intra=0 / bframes=3 / b_pyramid=1 / b_adapt=2 / b_bias=0 / direct=3 / weightb=1 / open_gop=0 / weightp=2 / keyint=250 / keyint_min=25 / scenecut=40 / intra_refresh=0 / rc_lookahead=60 / rc=2pass / mbtree=1 / bitrate=1472 / ratetol=1.0 / qcomp=0.60 / qpmin=0 / qpmax=69 / qpstep=4 / cplxblur=20.0 / qblur=0.5 / vbv_maxrate=14000 / vbv_bufsize=14500 / nal_hrd=none / ip_ratio=1.40 / aq=1:1.00
Язык : Thai
Default : Да
Forced : Нет
Аудио
Идентификатор : 2
Формат : AC-3
Формат/Информация : Audio Coding 3
Расширение режима : CM (complete main)
Параметр Endianness формата : Big
Идентификатор кодека : A_AC3
Продолжительность : 1 ч. 47 м.
Вид битрейта : Постоянный
Битрейт : 448 Кбит/сек
Каналы : 6 каналов
Расположение каналов : Front: L C R, Side: L R, LFE
Частота : 48,0 КГц
Битовая глубина : 16 бит
Метод сжатия : С потерями
Размер потока : 346 Мбайт (23%)
Заголовок : Yes or No - 2 (Thai)
Язык : Thai
Default : Да
Forced : Нет
Текст #1
Идентификатор : 3
Формат : UTF-8
Идентификатор кодека : S_TEXT/UTF8
Идентификатор кодека/Информация : UTF-8 Plain Text
Заголовок : Yes or No - 2 (Rus)
Язык : Russian
Default : Да
Forced : Нет
Текст #2
Идентификатор : 4
Формат : UTF-8
Идентификатор кодека : S_TEXT/UTF8
Идентификатор кодека/Информация : UTF-8 Plain Text
Заголовок : Yes or No - 2 (Eng)
Язык : English
Default : Нет
Forced : Нет
Меню
00:00:00.000 : :Chapter 01
00:02:36.000 : :Chapter 02
00:10:30.720 : :Chapter 03
00:19:38.400 : :Chapter 04
00:27:17.760 : :Chapter 05
00:29:36.960 : :Chapter 06
00:41:13.440 : :Chapter 07
00:55:06.240 : :Chapter 08
01:02:33.600 : :Chapter 09
01:12:52.320 : :Chapter 10
01:20:03.360 : :Chapter 11
01:31:12.000 : :Chapter 12
01:35:52.320 : :Chapter 13

Пример субтитров

332
00:25:32,254 --> 00:25:34,124
Алло, Ким? Алло?
333
00:25:34,125 --> 00:25:37,104
Ну как ты? Я никак не могла до
тебя дозвониться.
334
00:25:37,105 --> 00:25:40,594
Почему так поздно? Я ждала целый день.
335
00:25:40,595 --> 00:25:43,664
Я была на работе, Пхай.
336
00:25:44,604 --> 00:25:46,264
У меня в доме не ловится сигнал.
337
00:25:47,214 --> 00:25:50,344
Мне пришлось пройтись, чтобы позвонить.
Здесь очень темно.
338
00:25:50,464 --> 00:25:52,364
Ой! В доме страшно?
339
00:25:52,405 --> 00:25:54,474
Там можно жить? С тобой кто-то есть?
340
00:25:54,475 --> 00:25:56,074
Здесь вовсе не страшно, Пхай.
341
00:25:56,075 --> 00:26:01,364
Я здесь с другим стажером. С девушкой.
342
00:26:01,365 --> 00:26:03,669
И как она? Хорошенькая?
343
00:26:05,274 --> 00:26:07,564
Она уже знает, что у тебя есть девушка?
344
00:26:07,689 --> 00:26:10,254
Ты можешь полностью доверять мне.
345
00:26:10,255 --> 00:26:14,424
Я буду тебе звонить каждый вечер в
8 часов, хорошо?
346
00:26:15,290 --> 00:26:16,784
Ну ...
347
00:26:18,234 --> 00:26:19,864
Сразу же после работы.
348
00:26:21,544 --> 00:26:22,524
Ну ладно, ладно.
349
00:26:24,304 --> 00:26:28,304
Давай днем будем писать друг другу SMS-ки.
Ведь мы можем слать сообщения.
350
00:26:29,074 --> 00:26:30,474
Ладно?
351
00:26:33,204 --> 00:26:34,824
Я очень по тебе скучаю.
352
00:26:36,014 --> 00:26:37,964
Я тоже. Спокойной ночи.

Скриншот c названием фильма

Скриншоты

Скачать

Скачать торрент! Да или Нет - 2 / Yes or No 2 / Rak Mai Rak Ya Kak Loei (Саратсвади Вонгсомпхет / Saratswadee Wongsomphet) [2012, Таиланд, мелодрама, комедия, DVDRip-AVC] Sub Rus, Eng

Как скачивать? · Что такое торрент? · Рейтинг и ограничения

Сайт не распространяет и не хранит электронные версии произведений, а лишь предоставляет доступ к создаваемому пользователями каталогу ссылок на торрент-файлы, которые содержат только списки хеш-сумм

[Профиль] [ЛС]
Показать сообщения:    
Ответить на тему

Текущее время: Сегодня 13:52

Часовой пояс: GMT + 4



Вы не можете начинать темы
Вы не можете отвечать на сообщения
Вы не можете редактировать свои сообщения
Вы не можете удалять свои сообщения
Вы не можете голосовать в опросах
Вы не можете прикреплять файлы к сообщениям
Вы не можете скачивать файлы