Треугольник / Triangle (Кристофер Смит / Christopher Smith) [2009, Великобритания, Австралия, детектив, триллер, ужасы, BDRip 1080p] DVO (R5) + MVO (ТВ-3) + AVO (Ю. Немахов) + Sub Rus, Eng + Original Eng

Ответить на тему
 
Автор Сообщение

user ®

Стаж: 7 лет 7 месяцев

Сообщений: 20008

Пост Пост: #1 от 28-Ноя-2013 20:25

[Цитировать]

Треугольник / Triangle Страна: Великобритания, Австралия
Жанр: детектив, триллер, ужасы
Год выпуска: 2009
Продолжительность: 01:38:52
Перевод 1: Профессиональный (двухголосый закадровый) R5
Перевод 2: Профессиональный (многоголосый закадровый) ТВ-3
Перевод 3: Авторский (одноголосый закадровый) Ю. Немахов
Cубтитры: русские (notabenoid), английские
Оригинальная аудиодорожка: английская
Режиссер: Кристофер Смит / Christopher Smith
В ролях: Мелисса Джордж, Джошуа МакИвор, Джек Тейлор, Майкл Дорман, Генри Никсон, Рейчал Карпани, Эмма Ланг, Лиам Хемсворт, Брайан Пробетс
Описание: Грег приглашает свою подругу Джесс, молодую мать-одиночку, провести день на яхте в кругу своих друзей. Начавшийся сильный шторм переворачивает судно, и оставшиеся в живых вынуждены дожидаться помощи, цепляясь за перевернутый корпус яхты. Спасение приходит в виде огромного океанического лайнера. Судно оказывается пустым, часы на борту остановились. Но они не одни на этом огромном корабле - за ними кто-то неустанно следит...
Тип релиза: BDRip 1080p
Контейнер: MKV
Видео: MPEG-4 AVC, 1920x812 (2.35:1), 24.000 fps, 15.4 Mbps
Аудио: Russian AC3 5.1 ch, 48 kHz, 16-bit, 448.00 kbps - R5
Аудио 2: Russian AC3 5.1 ch, 48 kHz, 16-bit, 448.00 kbps - ТВ-3
Аудио 3: Russian DTS 5.1 ch, 48 kHz, 16-bit, 1509 kbps - Ю.Немахов
Аудио 4: English DTS 5.1 ch, 48 kHz, 24-bit, 1509 kbps
Формат субтитров: softsub (SRT)
Навигация по главам: есть

Сэмпл

MediaInfo

C:\Видео\Triangle - Треугольник (2009) BDrip 1080p.mkv
General
Unique ID : 238597624460134801217505284528211773001 (0xB3803B203E47905F97A784018AF44649)
Complete name : C:\Видео\Triangle - Треугольник (2009) BDrip 1080p.mkv
Format : Matroska
Format version : Version 4 / Version 2
File size : 13.3 GiB
Duration : 1h 38mn
Overall bit rate : 19.3 Mbps
Movie name : Triangle (2009)
Encoded date : UTC 2013-11-18 14:06:25
Writing application : mkvmerge v6.5.0 ('Isn't she lovely') built on Oct 20 2013 12:50:05
Writing library : libebml v1.3.0 + libmatroska v1.4.1
Attachment : Yes
Video #1
ID : 1
Format : AVC
Format/Info : Advanced Video Codec
Format profile : High@L4.1
Format settings, CABAC : Yes
Format settings, ReFrames : 5 frames
Codec ID : V_MPEG4/ISO/AVC
Duration : 1h 38mn
Bit rate : 15.4 Mbps
Width : 1 920 pixels
Height : 812 pixels
Display aspect ratio : 2.35:1
Frame rate mode : Constant
Frame rate : 24.000 fps
Color space : YUV
Chroma subsampling : 4:2:0
Bit depth : 8 bits
Scan type : Progressive
Bits/(Pixel*Frame) : 0.412
Stream size : 10.4 GiB (78%)
Title : Release for HDCLUB
Writing library : x264 core 94 r1564 a927654
Encoding settings : cabac=1 / ref=5 / deblock=1:-3:-3 / analyse=0x3:0x133 / me=umh / subme=9 / psy=1 / psy_rd=1.10:0.00 / mixed_ref=1 / me_range=32 / chroma_me=1 / trellis=2 / 8x8dct=1 / cqm=0 / deadzone=21,11 / fast_pskip=0 / chroma_qp_offset=-2 / threads=12 / sliced_threads=0 / nr=0 / decimate=0 / interlaced=0 / constrained_intra=0 / bframes=5 / b_pyramid=2 / b_adapt=2 / b_bias=0 / direct=3 / wpredb=1 / wpredp=2 / keyint=250 / keyint_min=25 / scenecut=40 / intra_refresh=0 / rc_lookahead=64 / rc=2pass / mbtree=1 / bitrate=15400 / ratetol=1.0 / qcomp=0.60 / qpmin=10 / qpmax=51 / qpstep=4 / cplxblur=20.0 / qblur=0.5 / vbv_maxrate=50000 / vbv_bufsize=50000 / ip_ratio=1.40 / aq=1:1.00 / nal_hrd=none
Language : English
Default : No
Forced : No
Audio #2
ID : 2
Format : AC-3
Format/Info : Audio Coding 3
Mode extension : CM (complete main)
Format settings, Endianness : Big
Codec ID : A_AC3
Duration : 1h 38mn
Bit rate mode : Constant
Bit rate : 448 Kbps
Channel count : 6 channels
Channel positions : Front: L C R, Side: L R, LFE
Sampling rate : 48.0 KHz
Bit depth : 16 bits
Compression mode : Lossy
Stream size : 317 MiB (2%)
Title : DVO (R5)
Language : Russian
Default : No
Forced : No
Audio #3
ID : 3
Format : AC-3
Format/Info : Audio Coding 3
Mode extension : CM (complete main)
Format settings, Endianness : Big
Codec ID : A_AC3
Duration : 1h 38mn
Bit rate mode : Constant
Bit rate : 448 Kbps
Channel count : 6 channels
Channel positions : Front: L C R, Side: L R, LFE
Sampling rate : 48.0 KHz
Bit depth : 16 bits
Compression mode : Lossy
Stream size : 317 MiB (2%)
Title : MVO (TB3)
Language : Russian
Default : No
Forced : No
Audio #4
ID : 4
Format : DTS
Format/Info : Digital Theater Systems
Mode : 16
Format settings, Endianness : Big
Codec ID : A_DTS
Duration : 1h 38mn
Bit rate mode : Constant
Bit rate : 1 509 Kbps
Channel count : 6 channels
Channel positions : Front: L C R, Side: L R, LFE
Sampling rate : 48.0 KHz
Bit depth : 16 bits
Compression mode : Lossy
Stream size : 1.04 GiB (8%)
Title : VO (Ю. Немахов)
Language : Russian
Default : No
Forced : No
Audio #5
ID : 5
Format : DTS
Format/Info : Digital Theater Systems
Mode : 16
Format settings, Endianness : Big
Codec ID : A_DTS
Duration : 1h 38mn
Bit rate mode : Constant
Bit rate : 1 509 Kbps
Channel count : 6 channels
Channel positions : Front: L C R, Side: L R, LFE
Sampling rate : 48.0 KHz
Bit depth : 24 bits
Compression mode : Lossy
Stream size : 1.04 GiB (8%)
Language : English
Default : No
Forced : No
Text #6
ID : 6
Format : UTF-8
Codec ID : S_TEXT/UTF8
Codec ID/Info : UTF-8 Plain Text
Title : notabenoid
Language : Russian
Default : No
Forced : No
Text #7
ID : 7
Format : UTF-8
Codec ID : S_TEXT/UTF8
Codec ID/Info : UTF-8 Plain Text
Language : English
Default : No
Forced : No
Menu
00:00:00.000 : en:Chapter 1
00:08:41.457 : en:Chapter 2
00:19:36.040 : en:Chapter 3
00:27:10.500 : en:Chapter 4
00:33:28.208 : en:Chapter 5
00:38:16.791 : en:Chapter 6
00:43:46.375 : en:Chapter 7
00:50:34.458 : en:Chapter 8
00:58:57.666 : en:Chapter 9
01:01:51.083 : en:Chapter 10
01:09:19.375 : en:Chapter 11
01:19:43.666 : en:Chapter 12
01:26:37.791 : en:Chapter 13
01:29:16.707 : en:Chapter 14
01:31:11.582 : en:Chapter 15
01:34:19.375 : en:Chapter 16

Скриншоты

Скачать

Скачать торрент!

Как скачивать? · Что такое торрент? · Рейтинг и ограничения

Сайт не распространяет и не хранит электронные версии произведений, а лишь предоставляет доступ к создаваемому пользователями каталогу ссылок на торрент-файлы, которые содержат только списки хеш-сумм

[Профиль] [ЛС]
Показать сообщения:    
Ответить на тему

Текущее время: Сегодня 00:03

Часовой пояс: GMT + 4



Вы не можете начинать темы
Вы не можете отвечать на сообщения
Вы не можете редактировать свои сообщения
Вы не можете удалять свои сообщения
Вы не можете голосовать в опросах
Вы не можете прикреплять файлы к сообщениям
Вы не можете скачивать файлы