Перси Джексон и Море чудовищ / Percy Jackson: Sea of Monsters (Тор Фройденталь / Thor Freudenthal) [2013, США, фэнтези, приключения, семейный, BDRip 720p] Dub + Ukr + Original (Eng) + Sub Rus, Ukr, Eng

Ответить на тему
 
Автор Сообщение

user ®

Стаж: 7 лет 7 месяцев

Сообщений: 20008

Пост Пост: #1 от 28-Ноя-2013 20:25

[Цитировать]

Перси Джексон и Море чудовищ / Percy Jackson: Sea of Monsters
«Где Боги - там и монстры»»

Год выпуска: 2013
Страна: США
Производство: Fox 2000 Pictures, Sunswept Entertainment, 1492 Pictures
Жанр: фэнтези, приключения, семейный
Продолжительность: 01:46:07
Перевод: Профессиональный (Полное дублирование)[Лицензия]
Субтитры: Russian (Blu-ray EUR), Ukrainian (Blu-ray EUR), English (SDH-COLORED)
Режиссер: Тор Фройденталь / Thor Freudenthal
В ролях: Логан Лерман, Александра Даддарио, Дуглас Смит, Ливэн Рамбин, Брэндон Т. Джексон, Джейк Эйбел, Энтони Хэд, Стэнли Туччи, Коннор Крэш Данн, Палома Квиатковски
Описание: Перси отправляется на поиски своего друга, сатира Гроувера, попавшего в ловушку к циклопу Полифему. На кону стоит не только сатир, но и весь «Лагерь полукровок»: кто-то отравил священное дерево Талии, а это значит, что защита лагеря вот-вот падет и уже ничто не сможет удержать чудовищ от вторжения. Исцелить дерево способно только мифическое Золотое руно, спрятанное на острове Полифема — и, чтобы добраться до него, необходимо переплыть Море Чудовищ и сразиться с его обитателями — Сциллой и Харибдой, сладкоголосыми сиренами и коварной волшебницей Цирцеей.


Премьера(мир) - 7 августа 2013
Премьера(РФ) - 22 августа 2013, «Двадцатый Век Фокс СНГ»
Релиз на Blu-Ray - 12 декабря 2013, «Двадцатый Век Фокс СНГ»
Релиз на DVD - 12 декабря 2013, «Двадцатый Век Фокс СНГ»
Сборы в мире - $198 896 416

Качество: BDRip 720p
Формат: MKV
Видео кодек: AVC
Аудио кодек: AC3, DTS
Видео: 1280x544 (2.35:1), 23.976 fps, Advanced Video Codec ~8082 kbps avg, 0.476 bit/ pixel
Аудио (RUS): 48 kHz, DTS, 3/2 (L,C,R,l,r) + LFE ch, ~768.00 kbps avg - |Профессиональный (Полное дублирование)[Лицензия]|
Аудио (UKR): 48 kHz, AC3, 3/2 (L,C,R,l,r) + LFE ch, ~448.00 kbps avg - |Профессиональный (Полное дублирование)[Украинский]|
Аудио (ENG): 48 kHz, DTS-ES, 3/3 (L,C,R,l,c,r) + LFE ch, ~1536.00 kbps avg - |Оригинал|
Аудио (ENG): 48 kHz, AC3, 3/2 (L,C,R,l,r) + LFE ch, ~448.00 kbps avg - |Descriptive|

Знаете ли вы, что...

• Фильм снят по мотивам романа Рика Риордана «Перси Джексон и Море чудовищ» (The Sea of Monsters, 2006).
• Несмотря на то, что фильм был снят в формате «Супер 35», в финальных титрах указано «снято в Panavision».
• 20 июня — 22 июля съемки проходили в Новом Орлеане.
• Александра Даддарио перекрасила волосы на светлые для роли Аннабет Чейз.
Планировалось, что фильм будет выпущен 15 марта 2013 года, но в мае 2012 года дата релиза была перенесена на 14 августа 2013 года.
• Ливэн Рамбин для своей роли Клариссы приходилось носить коричневый парик.
Мистер Ди или Дионис (Стэнли Туччи) все же появился в этом фильме. В первом фильме («Перси Джексон и похититель молний» (2010)) его персонаж был удален.
• Во время съемок сцен на яхте и шлюпке Александра Даддарио обнаружила, что у нее есть склонность к морской болезни. Интересно то, что у ее персонажа в романе эта болезнь развивается на корабле «Месть королевы Анны».

Ошибки в фильме

• В сценах в Вашингтоне, Округ Колумбия, на фоне видны небоскребы. По закону, принятому в 1910 году, ограничена высота зданий, самое высокое — 64 метра.
• Когда Аннабет обнаруживает магические силы Золотого Руна на планшете, она затем подбегает к Гроверу, чтобы показать это, в этот момент можно заметить, что на его экране ничего нет.

MI

Код:
General
Unique ID : 234403240507177342567907786637496571292 (0xB0586C07E4459FAAA9C653480D10559C)
Complete name : Percy.Jackson.Sea.of.Monsters.2013.720p.mkv
Format : Matroska
Format version : Version 2
File size : 8.41 GiB
Duration : 1h 46mn
Overall bit rate : 11.4 Mbps
Movie name : Percy Jackson: Sea of Monsters (2013)
Encoded date : UTC 2013-11-26 18:26:50
Writing application : mkvmerge v3.4.0 ('Rapunzel') built on May 15 2010 09:38:20
Writing library : libebml v0.8.0 + libmatroska v0.9.0
Video
ID : 1
Format : AVC
Format/Info : Advanced Video Codec
Format profile : High@L4.1
Format settings, CABAC : Yes
Format settings, ReFrames : 12 frames
Codec ID : V_MPEG4/ISO/AVC
Duration : 1h 46mn
Bit rate : 8 082 Kbps
Width : 1 280 pixels
Height : 544 pixels
Display aspect ratio : 2.35:1
Frame rate mode : Constant
Frame rate : 23.976 fps
Color space : YUV
Chroma subsampling : 4:2:0
Bit depth : 8 bits
Scan type : Progressive
Bits/(Pixel*Frame) : 0.476
Stream size : 5.89 GiB (70%)
Title : Percy Jackson: Sea of Monsters (2013)
Writing library : x264 core 129 r2245 bc13772
Encoding settings : cabac=1 / ref=12 / deblock=1:-3:-3 / analyse=0x3:0x133 / me=umh / subme=10 / psy=1 / psy_rd=1.10:0.00 / mixed_ref=1 / me_range=24 / chroma_me=1 / trellis=2 / 8x8dct=1 / cqm=0 / deadzone=21,11 / fast_pskip=0 / chroma_qp_offset=-2 / threads=12 / lookahead_threads=2 / sliced_threads=0 / nr=0 / decimate=0 / interlaced=0 / bluray_compat=0 / constrained_intra=0 / bframes=8 / b_pyramid=2 / b_adapt=2 / b_bias=0 / direct=3 / weightb=1 / open_gop=0 / weightp=2 / keyint=250 / keyint_min=23 / scenecut=40 / intra_refresh=0 / rc=crf / mbtree=0 / crf=15.0 / qcomp=0.75 / qpmin=0 / qpmax=69 / qpstep=4 / ip_ratio=1.40 / pb_ratio=1.30 / aq=1:0.75
Language : English
Default : Yes
Forced : No
Audio #1
ID : 2
Format : DTS
Format/Info : Digital Theater Systems
Mode : 16
Format settings, Endianness : Big
Codec ID : A_DTS
Duration : 1h 46mn
Bit rate mode : Constant
Bit rate : 768 Kbps
Channel count : 6 channels
Channel positions : Front: L C R, Side: L R, LFE
Sampling rate : 48.0 KHz
Bit depth : 24 bits
Compression mode : Lossy
Stream size : 583 MiB (7%)
Title : DTS 5.1 @ 768 kbps - DUB, Blu-ray EUR
Language : Russian
Default : Yes
Forced : No
Audio #2
ID : 3
Format : AC-3
Format/Info : Audio Coding 3
Mode extension : CM (complete main)
Format settings, Endianness : Big
Codec ID : A_AC3
Duration : 1h 46mn
Bit rate mode : Constant
Bit rate : 448 Kbps
Channel count : 6 channels
Channel positions : Front: L C R, Side: L R, LFE
Sampling rate : 48.0 KHz
Bit depth : 16 bits
Compression mode : Lossy
Stream size : 340 MiB (4%)
Title : AC3 5.1 @ 448 kbps - DUB, Blu-ray EUR
Language : Ukrainian
Default : No
Forced : No
Audio #3
ID : 4
Format : DTS
Format/Info : Digital Theater Systems
Format profile : ES
Mode : 16
Format settings, Endianness : Big
Codec ID : A_DTS
Duration : 1h 46mn
Bit rate mode : Constant
Bit rate : 1 509 Kbps
Channel count : 6 channels
Channel positions : Front: L C R, Side: L R, LFE
Sampling rate : 48.0 KHz
Bit depth : 24 bits
Compression mode : Lossy
Delay relative to video : 11ms
Stream size : 1.12 GiB (13%)
Title : DTS-ES @ 1536 kbps
Language : English
Default : No
Forced : No
Audio #4
ID : 5
Format : AC-3
Format/Info : Audio Coding 3
Mode extension : CM (complete main)
Format settings, Endianness : Big
Codec ID : A_AC3
Duration : 1h 46mn
Bit rate mode : Constant
Bit rate : 448 Kbps
Channel count : 6 channels
Channel positions : Front: L C R, Side: L R, LFE
Sampling rate : 48.0 KHz
Bit depth : 16 bits
Compression mode : Lossy
Stream size : 340 MiB (4%)
Title : AC3 5.1 @ 448 kbps - Descriptive
Language : English
Default : No
Forced : No
Text #1
ID : 6
Format : UTF-8
Codec ID : S_TEXT/UTF8
Codec ID/Info : UTF-8 Plain Text
Title : Blu-ray EUR
Language : Russian
Default : No
Forced : No
Text #2
ID : 7
Format : UTF-8
Codec ID : S_TEXT/UTF8
Codec ID/Info : UTF-8 Plain Text
Title : Blu-ray EUR
Language : Ukrainian
Default : No
Forced : No
Text #3
ID : 8
Format : UTF-8
Codec ID : S_TEXT/UTF8
Codec ID/Info : UTF-8 Plain Text
Title : SDH-COLORED
Language : English
Default : No
Forced : No
Menu
00:00:00.000 : en:00:00:00.000
00:04:05.454 : en:00:04:05.454
00:06:43.069 : en:00:06:43.069
00:09:31.696 : en:00:09:31.696
00:13:53.124 : en:00:13:53.124
00:19:17.156 : en:00:19:17.156
00:20:48.038 : en:00:20:48.038
00:22:10.496 : en:00:22:10.496
00:25:30.529 : en:00:25:30.529
00:28:22.826 : en:00:28:22.826
00:30:27.534 : en:00:30:27.534
00:33:19.998 : en:00:33:19.998
00:37:01.261 : en:00:37:01.261
00:39:49.596 : en:00:39:49.596
00:45:16.380 : en:00:45:16.380
00:48:50.177 : en:00:48:50.177
00:52:42.951 : en:00:52:42.951
00:56:35.100 : en:00:56:35.100
01:00:19.866 : en:01:00:19.866
01:03:35.895 : en:01:03:35.895
01:05:40.687 : en:01:05:40.687
01:10:41.696 : en:01:10:41.696
01:12:32.181 : en:01:12:32.181
01:16:52.817 : en:01:16:52.817
01:19:39.441 : en:01:19:39.441
01:23:01.768 : en:01:23:01.768
01:25:45.807 : en:01:25:45.807
01:29:54.264 : en:01:29:54.264
01:32:47.312 : en:01:32:47.312
01:34:25.243 : en:01:34:25.243
01:36:07.971 : en:01:36:07.971
01:37:39.187 : en:01:37:39.187

Скриншоты

Скачать

Скачать торрент!

Как скачивать? · Что такое торрент? · Рейтинг и ограничения

Сайт не распространяет и не хранит электронные версии произведений, а лишь предоставляет доступ к создаваемому пользователями каталогу ссылок на торрент-файлы, которые содержат только списки хеш-сумм

[Профиль] [ЛС]
Показать сообщения:    
Ответить на тему

Текущее время: Сегодня 05:59

Часовой пояс: GMT + 4



Вы не можете начинать темы
Вы не можете отвечать на сообщения
Вы не можете редактировать свои сообщения
Вы не можете удалять свои сообщения
Вы не можете голосовать в опросах
Вы не можете прикреплять файлы к сообщениям
Вы не можете скачивать файлы