Клиент / The Client (Джоэл Шумахер / Joel Schumacher) [1994, США, триллер, драма, криминал, детектив, BDRip 1080p] DVO (НТВ+) + DVO (R5, Twister) + AVO (Андрей Гаврилов) + AVO (Василий Горчаков) + Sub (Rus, Eng) + Original Eng

Ответить на тему
 
Автор Сообщение

user ®

Стаж: 7 лет 7 месяцев

Сообщений: 20008

Пост Пост: #1 от 28-Ноя-2013 20:25

[Цитировать]

Клиент / The Client
Страна: США
Студия: Regency Enterprises, Warner Bros. Pictures, Alcor Films
Жанр: триллер, драма, криминал, детектив
Год выпуска: 1994
Продолжительность: 02:00:45
Перевод 1: Профессиональный (двухголосый закадровый) НТВ+
Перевод 2: Профессиональный (двухголосый закадровый) R5, Twister
Перевод 3: Авторский (одноголосый закадровый) Андрей Гаврилов
Перевод 4: Авторский (одноголосый закадровый) Василий Горчаков
Cубтитры: русские, английские
Оригинальная аудиодорожка: английский
Режиссер: Джоэл Шумахер / Joel Schumacher
В ролях: Сьюзен Сарандон, Томми Ли Джонс, Брэд Ренфро, Мэри-Луиз Паркер, Энтони ЛаПалья, Дж.Т. Уолш, Уилл Пэттон, Энтони Эдвардс, Уильям Х. Мэйси, Брэдли Уитфорд, Энтони Хилд, Ким Коутс, Миколе Миркурио, Эми Хэтэуэй, Рон Дин, Уильям Ричерт
Описание: 11-летний Марк невольно становится свидетелем самоубийства адвоката, работающего на мафию. Преступники готовы избавиться от него любым способом. А представители закона озабочены только его показаниями и не гарантируют Марку и его семье полноценной защиты.
Он самостоятельно решил обратиться за помощью к адвокату Рэджи Лав, чтобы сохранить свою жизнь и добиться справедливости.

Исходник: vitolinform (Кинозал)
Тип релиза: BDRip 1080p
Контейнер: MKV
Видео: MPEG-4 AVC, 10.1 Mбит/с, 1918x800
Аудио 1: Russian: AC3, 2.0 ch, 224 kbps, 48 kHz | двухголосый [НТВ+]
Аудио 2: Russian: AC3, 2.0 ch, 192 kbps, 48 kHz | двухголосый [DVD R5]
Аудио 3: Russian: AC3, 2.0 ch, 192 kbps, 48 kHz | одноголосый [Гаврилов]
Аудио 4: Russian: AC3, 2.0 ch, 192 kbps, 48 kHz | одноголосый [Горчаков]
Аудио 5: English: DTS, 2.0 ch, 24-bit, 1509 kbps, 48 kHz
Формат субтитров: softsub (SRT)

MediaInfo

Общее
Уникальный идентификатор : 218217346208013197831210138267982731246 (0xA42B21D43BB877C6BACC21570C8F97EE)
Полное имя : E:VideoKlient.1994.x264.BDRip.1080p.mkv
Формат : Matroska
Версия формата : Version 4 / Version 2
Размер файла : 10,7 Гбайт
Продолжительность : 2 ч. 0 м.
Общий поток : 12,7 Мбит/сек
Название фильма : Клиент / The Client / 1994 / BDRip -- STarankov
Дата кодирования : UTC 2013-11-27 11:18:05
Программа кодирования : mkvmerge v6.4.1 ('Omega Point') built on Sep 16 2013 22:05:10
Библиотека кодирования : libebml v1.3.0 + libmatroska v1.4.1
Видео
Идентификатор : 1
Формат : AVC
Формат/Информация : Advanced Video Codec
Профиль формата : High@L4.1
Параметр CABAC формата : Да
Параметр ReFrames формата : 5 кадров
Идентификатор кодека : V_MPEG4/ISO/AVC
Продолжительность : 2 ч. 0 м.
Битрейт : 10,1 Мбит/сек
Ширина : 1918 пикселей
Высота : 800 пикселей
Соотношение сторон : 2,40:1
Режим частоты кадров : Постоянный
Частота кадров : 23,976 кадра/сек
Цветовое пространство : YUV
Субдискретизация насыщенности : 4:2:0
Битовая глубина : 8 бит
Тип развёртки : Прогрессивная
Бит/(Пиксели*Кадры) : 0.275
Размер потока : 8,52 Гбайт (80%)
Библиотека кодирования : x264 core 138 r2358 9e941d1
Настройки программы : cabac=1 / ref=5 / deblock=1:-1:-1 / analyse=0x3:0x113 / me=umh / subme=10 / psy=1 / psy_rd=1.00:0.15 / mixed_ref=1 / me_range=24 / chroma_me=1 / trellis=2 / 8x8dct=1 / cqm=0 / deadzone=21,11 / fast_pskip=0 / chroma_qp_offset=-3 / threads=6 / lookahead_threads=1 / sliced_threads=0 / nr=0 / decimate=1 / interlaced=0 / bluray_compat=0 / constrained_intra=0 / bframes=8 / b_pyramid=2 / b_adapt=2 / b_bias=0 / direct=1 / weightb=1 / open_gop=0 / weightp=2 / keyint=230 / keyint_min=23 / scenecut=40 / intra_refresh=0 / rc_lookahead=40 / rc=crf / mbtree=0 / crf=18.0 / qcomp=0.60 / qpmin=0 / qpmax=69 / qpstep=4 / vbv_maxrate=50000 / vbv_bufsize=62500 / crf_max=0.0 / nal_hrd=none / ip_ratio=1.40 / pb_ratio=1.30 / aq=1:1.00
Язык : English
Default : Да
Forced : Нет
Аудио #1
Идентификатор : 2
Формат : AC-3
Формат/Информация : Audio Coding 3
Расширение режима : CM (complete main)
Параметр Endianness формата : Big
Идентификатор кодека : A_AC3
Продолжительность : 2 ч. 0 м.
Вид битрейта : Постоянный
Битрейт : 224 Кбит/сек
Каналы : 2 канала
Расположение каналов : Front: L R
Частота : 48,0 КГц
Битовая глубина : 16 бит
Метод сжатия : С потерями
Размер потока : 194 Мбайт (2%)
Заголовок : DVO (HTB+)
Язык : Russian
Default : Да
Forced : Нет
Аудио #2
Идентификатор : 3
Формат : AC-3
Формат/Информация : Audio Coding 3
Расширение режима : CM (complete main)
Параметр Endianness формата : Big
Идентификатор кодека : A_AC3
Продолжительность : 2 ч. 0 м.
Вид битрейта : Постоянный
Битрейт : 192 Кбит/сек
Каналы : 2 канала
Расположение каналов : Front: L R
Частота : 48,0 КГц
Битовая глубина : 16 бит
Метод сжатия : С потерями
Размер потока : 166 Мбайт (2%)
Заголовок : DVO (R5, Twister)
Язык : Russian
Default : Нет
Forced : Нет
Аудио #3
Идентификатор : 4
Формат : AC-3
Формат/Информация : Audio Coding 3
Расширение режима : CM (complete main)
Параметр Endianness формата : Big
Идентификатор кодека : A_AC3
Продолжительность : 2 ч. 0 м.
Вид битрейта : Постоянный
Битрейт : 192 Кбит/сек
Каналы : 2 канала
Расположение каналов : Front: L R
Частота : 48,0 КГц
Битовая глубина : 16 бит
Метод сжатия : С потерями
Размер потока : 166 Мбайт (2%)
Заголовок : AVO (Андрей Гаврилов)
Язык : Russian
Default : Нет
Forced : Нет
Аудио #4
Идентификатор : 5
Формат : AC-3
Формат/Информация : Audio Coding 3
Расширение режима : CM (complete main)
Параметр Endianness формата : Big
Идентификатор кодека : A_AC3
Продолжительность : 2 ч. 0 м.
Вид битрейта : Постоянный
Битрейт : 192 Кбит/сек
Каналы : 2 канала
Расположение каналов : Front: L R
Частота : 48,0 КГц
Битовая глубина : 16 бит
Метод сжатия : С потерями
Размер потока : 166 Мбайт (2%)
Заголовок : AVO (Василий Горчаков)
Язык : Russian
Default : Нет
Forced : Нет
Аудио #5
Идентификатор : 6
Формат : DTS
Формат/Информация : Digital Theater Systems
Режим : 16
Параметр Endianness формата : Big
Идентификатор кодека : A_DTS
Продолжительность : 2 ч. 0 м.
Вид битрейта : Постоянный
Битрейт : 1509 Кбит/сек
Каналы : 2 канала
Расположение каналов : Front: L R
Частота : 48,0 КГц
Битовая глубина : 24 бит
Метод сжатия : С потерями
Размер потока : 1,27 Гбайт (12%)
Заголовок : Original
Язык : English
Default : Нет
Forced : Нет
Текст #1
Идентификатор : 7
Формат : UTF-8
Идентификатор кодека : S_TEXT/UTF8
Идентификатор кодека/Информация : UTF-8 Plain Text
Заголовок : русский
Язык : Russian
Default : Нет
Forced : Нет
Текст #2
Идентификатор : 8
Формат : UTF-8
Идентификатор кодека : S_TEXT/UTF8
Идентификатор кодека/Информация : UTF-8 Plain Text
Заголовок : английский
Default : Нет
Forced : Нет
Меню
00:00:00.000 : en:Chapter 1
00:12:13.107 : en:Chapter 2
00:21:45.429 : en:Chapter 3
00:30:44.551 : en:Chapter 4
00:40:55.745 : en:Chapter 5
00:52:59.426 : en:Chapter 6
01:02:30.455 : en:Chapter 7
01:11:58.648 : en:Chapter 8
01:20:55.100 : en:Chapter 9
01:31:56.094 : en:Chapter 10
01:41:08.980 : en:Chapter 11
01:50:49.017 : en:Chapter 12
01:57:02.432 : en:Chapter 13
---[Information] [26.11.2013 22:19:23] avs [info]: 1918x800p 1:1 @ 24000/1001 fps (cfr)
---[Information] [26.11.2013 22:19:24] x264 [info]: using SAR=1/1
---[Information] [26.11.2013 22:19:24] x264 [info]: using cpu capabilities: MMX2 SSE2Fast SSSE3 SSE4.2
---[Information] [26.11.2013 22:19:24] x264 [info]: profile High, level 4.1
---[Information] [27.11.2013 17:44:40] x264 [info]: frame I:1555 Avg QP:15.92 size:150576
---[Information] [27.11.2013 17:44:42] x264 [info]: frame P:31932 Avg QP:16.92 size: 94453
---[Information] [27.11.2013 17:44:45] x264 [info]: frame B:140243 Avg QP:18.82 size: 43697
---[Information] [27.11.2013 17:44:45] x264 [info]: consecutive B-frames: 1.5% 0.9% 2.4% 13.1% 12.4% 46.0% 10.5% 9.2% 4.0%
---[Information] [27.11.2013 17:44:45] x264 [info]: mb I I16..4: 14.7% 62.7% 22.6%
---[Information] [27.11.2013 17:44:45] x264 [info]: mb P I16..4: 4.8% 37.3% 4.9% P16..4: 23.9% 19.4% 8.9% 0.0% 0.0% skip: 0.8%
---[Information] [27.11.2013 17:44:45] x264 [info]: mb B I16..4: 0.7% 7.7% 0.4% B16..8: 37.8% 17.2% 3.9% direct:14.2% skip:18.1% L0:45.8% L1:37.2% BI:17.0%
---[Information] [27.11.2013 17:44:46] x264 [info]: 8x8 transform intra:81.7% inter:38.1%
---[Information] [27.11.2013 17:44:46] x264 [info]: coded y,uvDC,uvAC intra: 97.1% 82.5% 56.6% inter: 46.1% 34.9% 2.6%
---[Information] [27.11.2013 17:44:46] x264 [info]: i16 v,h,dc,p: 14% 6% 33% 48%
---[Information] [27.11.2013 17:44:46] x264 [info]: i8 v,h,dc,ddl,ddr,vr,hd,vl,hu: 11% 10% 23% 8% 9% 8% 9% 10% 12%
---[Information] [27.11.2013 17:44:46] x264 [info]: i4 v,h,dc,ddl,ddr,vr,hd,vl,hu: 12% 9% 8% 9% 13% 12% 13% 10% 13%
---[Information] [27.11.2013 17:44:46] x264 [info]: i8c dc,h,v,p: 48% 23% 21% 8%
---[Information] [27.11.2013 17:44:46] x264 [info]: Weighted P-Frames: Y:3.5% UV:1.8%
---[Information] [27.11.2013 17:44:46] x264 [info]: ref P L0: 41.9% 9.7% 26.7% 10.4% 10.9% 0.5% 0.0%
---[Information] [27.11.2013 17:44:46] x264 [info]: ref B L0: 66.8% 23.6% 7.7% 1.9%
---[Information] [27.11.2013 17:44:46] x264 [info]: ref B L1: 88.4% 11.6%
---[Information] [27.11.2013 17:44:46] x264 [info]: kb/s:10354.39
---[Information] [27.11.2013 17:44:46] encoded 173730 frames, 2.48 fps, 10354.39 kb/s
--[Information] [27.11.2013 17:44:49] Final statistics
---[Information] [27.11.2013 17:44:49] Constant Quality Mode: Quality 18 computed...
---[Information] [27.11.2013 17:44:49] Video Bitrate Obtained (approximate): 10356 kbit/s
--[Information] [27.11.2013 17:44:49] MediaInfo
---[Information] File: E:RipKlient.1994.x264.BDRipKlient.1994.x264.BDRip.1080p.mkv

Скриншоты


Скачать

Скачать торрент!

Как скачивать? · Что такое торрент? · Рейтинг и ограничения

Сайт не распространяет и не хранит электронные версии произведений, а лишь предоставляет доступ к создаваемому пользователями каталогу ссылок на торрент-файлы, которые содержат только списки хеш-сумм

[Профиль] [ЛС]
Показать сообщения:    
Ответить на тему

Текущее время: Сегодня 14:34

Часовой пояс: GMT + 4



Вы не можете начинать темы
Вы не можете отвечать на сообщения
Вы не можете редактировать свои сообщения
Вы не можете удалять свои сообщения
Вы не можете голосовать в опросах
Вы не можете прикреплять файлы к сообщениям
Вы не можете скачивать файлы