Ночь страха 2: Свежая кровь / Fright Night 2: New Blood (Эдуардо Родригез / Eduardo Rodriguez) [2013, США, ужасы, комедия, BDRip] MVO

Ответить на тему
 
Автор Сообщение

user ®

Стаж: 7 лет 7 месяцев

Сообщений: 20008

Пост Пост: #1 от 28-Ноя-2013 20:25

[Цитировать]

Ночь страха 2: Свежая кровь / Fright Night 2: New Blood
Страна: США
Жанр: ужасы, комедия
Год выпуска: 2013
Продолжительность: 01:39:41
Перевод: Профессиональный (многоголосый закадровый) Лицензия Blu-ray EUR
Cубтитры: нет
Режиссер: Эдуардо Родригез / Eduardo Rodriguez
В ролях: Джейми Мюррэй, Уилл Пэйн, Саша Паркинсон, Крис Уоллер, Шон Пауэр
Описание: Молодые студенты колледжа внезапно узнают страшную правду о своем новом профессоре. Оказывается, их профессор — красивая молодая женщина Джерри Дэндридж — настоящая вампирша! Пытаясь донести это до остальных, ребята, сами того не желая, подписали себе смертный приговор. Потому что Джерри совершенно не хочет, чтобы ее тайна стала достоянием общественности…
Доп. информация:
Качество видео: BDRip | Dreamcatcher/Blu-ray EUR 1080p AVC DTS 5.1-TTG
Формат видео: AVI
Видео: 720x400 (1.80:1), 23.976 fps, XviD build 73 ~1631 kbps avg, 0.24 bit/pixel
Аудио: 48 kHz, AC3 Dolby Digital, 3/2 (L,C,R,l,r) + LFE ch, ~448 kbps

MediaInfo

Общее
Полное имя : C:\Documents and Settings\Пользователь\Рабочий стол\Торрентс.ру\Fright.Night.2.New.Blood.2013.BDRip.MVO_by_LBS.avi
Формат : AVI
Формат/Информация : Audio Video Interleave
Размер файла : 1,45 Гбайт
Продолжительность : 1 ч. 39 м.
Общий поток : 2089 Кбит/сек
Режиссёр : Last Boy Scout
Программа кодирования : VirtualDubMod 1.5.10.3 | www.virtualdub-fr.org || (build 2550/release)
Правообладатель :
Примечание : BDRip MVO (BD EUR)
Видео
Идентификатор : 0
Формат : MPEG-4 Visual
Профиль формата : Advanced Simple@L5
Параметр BVOP формата : 1
Параметр QPel формата : Нет
Параметр GMC формата : Без точки перехода
Параметр матрицы формата : Выборочная
Идентификатор кодека : XVID
Идентификатор кодека/Подсказка : XviD
Продолжительность : 1 ч. 39 м.
Битрейт : 1631 Кбит/сек
Ширина : 720 пикселей
Высота : 400 пикселей
Соотношение сторон : 16:9
Частота кадров : 23,976 кадра/сек
Цветовое пространство : YUV
Субдискретизация насыщенности : 4:2:0
Битовая глубина : 8 бит
Тип развёртки : Прогрессивная
Метод сжатия : С потерями
Бит/(Пиксели*Кадры) : 0.236
Размер потока : 1,14 Гбайт (78%)
Библиотека кодирования : XviD 73
Аудио
Идентификатор : 1
Формат : AC-3
Формат/Информация : Audio Coding 3
Расширение режима : CM (complete main)
Параметр Endianness формата : Big
Идентификатор кодека : 2000
Продолжительность : 1 ч. 39 м.
Вид битрейта : Постоянный
Битрейт : 448 Кбит/сек
Каналы : 6 каналов
Расположение каналов : Front: L C R, Side: L R, LFE
Частота : 48,0 КГц
Битовая глубина : 16 бит
Метод сжатия : С потерями
Размер потока : 319 Мбайт (21%)
Выравнивание : Разделение по промежуткам
Продолжительность промежутка : 42 мс. (1,00 видеокадр)
Время предзагрузки промежутка : 500 мс.

Скриншоты


Скачать

Скачать торрент!

Как скачивать? · Что такое торрент? · Рейтинг и ограничения

Сайт не распространяет и не хранит электронные версии произведений, а лишь предоставляет доступ к создаваемому пользователями каталогу ссылок на торрент-файлы, которые содержат только списки хеш-сумм

[Профиль] [ЛС]
Показать сообщения:    
Ответить на тему

Текущее время: Сегодня 05:57

Часовой пояс: GMT + 4



Вы не можете начинать темы
Вы не можете отвечать на сообщения
Вы не можете редактировать свои сообщения
Вы не можете удалять свои сообщения
Вы не можете голосовать в опросах
Вы не можете прикреплять файлы к сообщениям
Вы не можете скачивать файлы