Няня-кошмар / The Nightmare Nanny (Майкл Фейфер / Michael Feifer) [2013, США, Триллер, драма, детектив, SATRip] DVO

Ответить на тему
 
Автор Сообщение

user ®

Стаж: 7 лет 7 месяцев

Сообщений: 20008

Пост Пост: #1 от 28-Ноя-2013 14:15

[Цитировать]

Няня-кошмар / The Nightmare Nanny

Страна: США
Жанр: Tриллер, драма, детектив
Год выпуска: 2013
Продолжительность: 01:26:26
Перевод: Профессиональный (двухголосый закадровый)
Cубтитры: нет
Режиссер: Майкл Фейфер / Michael Feifer
В ролях: Эшли Скотт, Кип Парду, Мекенна Мелвин, Кейтлин Рид, Ана Лукэйси, Шелби Джейнс, Филип Энтони-Родригес, Роберт Мафия
Описание: Энни находит няню для своей трёхлетней дочери Дженни. Но с каждым днем девочка привязывается к няне всё больше и больше, и Энни начинает чувствовать, что её вытесняют из собственной семьи...
Качество видео: SATRip
Формат видео: AVI
Видео: XviD, 2073 Кбит/с, 25,000fps, 720x400
Аудио: AC3, 2 ch, 48.0 KHz, 192 Кбит/с
-Релиз от : - -

MediaInfo

Общее
Полное имя : C:\Раздачи\Nyanya-koshmar.2013.XviD.SATRip.ClubTorrent.avi
Формат : AVI
Формат/Информация : Audio Video Interleave
Размер файла : 1,37 Гбайт
Продолжительность : 1 ч. 26 м.
Общий поток : 2275 Кбит/сек
Программа кодирования : VirtualDubModRus 1.5.10.2 (build 2542/release)
Библиотека кодирования : VirtualDubMod build 2542/release
Видео
Идентификатор : 0
Формат : MPEG-4 Visual
Профиль формата : Advanced Simple@L5
Параметр BVOP формата : 1
Параметр QPel формата : Нет
Параметр GMC формата : Без точки перехода
Параметр матрицы формата : Default (MPEG)
Идентификатор кодека : XVID
Идентификатор кодека/Подсказка : XviD
Продолжительность : 1 ч. 26 м.
Битрейт : 2073 Кбит/сек
Ширина : 720 пикселей
Высота : 400 пикселей
Соотношение сторон : 16:9
Частота кадров : 25,000 кадров/сек
Цветовое пространство : YUV
Субдискретизация насыщенности : 4:2:0
Битовая глубина : 8 бит
Тип развёртки : Прогрессивная
Метод сжатия : С потерями
Бит/(Пиксели*Кадры) : 0.288
Размер потока : 1,25 Гбайт (91%)
Библиотека кодирования : XviD 1.2.1 (UTC 2008-12-04)
Аудио
Идентификатор : 1
Формат : AC-3
Формат/Информация : Audio Coding 3
Расширение режима : CM (complete main)
Параметр Endianness формата : Big
Идентификатор кодека : 2000
Продолжительность : 1 ч. 26 м.
Вид битрейта : Постоянный
Битрейт : 192 Кбит/сек
Каналы : 2 канала
Расположение каналов : Front: L R
Частота : 48,0 КГц
Битовая глубина : 16 бит
Метод сжатия : С потерями
Размер потока : 119 Мбайт (8%)
Выравнивание : Разделение по промежуткам
Продолжительность промежутка : 40 мс. (1,00 видеокадр)
Время предзагрузки промежутка : 500 мс.

Скриншот c названием фильма

Скриншоты


- -
Скачать

Скачать торрент!

Как скачивать? · Что такое торрент? · Рейтинг и ограничения

Сайт не распространяет и не хранит электронные версии произведений, а лишь предоставляет доступ к создаваемому пользователями каталогу ссылок на торрент-файлы, которые содержат только списки хеш-сумм

[Профиль] [ЛС]
Показать сообщения:    
Ответить на тему

Текущее время: Сегодня 20:10

Часовой пояс: GMT + 4



Вы не можете начинать темы
Вы не можете отвечать на сообщения
Вы не можете редактировать свои сообщения
Вы не можете удалять свои сообщения
Вы не можете голосовать в опросах
Вы не можете прикреплять файлы к сообщениям
Вы не можете скачивать файлы