Перед полуночью / Before Midnight (Ричард Линклейтер / Richard Linklater) [2013, США, драма, мелодрама, BDRip 1080p] DVO + VO (Чадов) + Original Eng + Sub (Rus, Eng, Fre)

Ответить на тему
 
Автор Сообщение

user ®

Стаж: 7 лет 7 месяцев

Сообщений: 20008

Пост Пост: #1 от 28-Ноя-2013 07:55

[Цитировать]

Перед полуночью / Before Midnight- Год выпуска: 2013
Страна: США
Жанр: драма, мелодрама
Продолжительность: 01:48:54
Перевод 1: Любительский (двухголосый закадровый) Зоя Балецкая и Юрий Андреев
Перевод 2: Одноголосый закадровый (Михаил Чадов)
Оригинальная аудиодорожка: Английская
Cубтитры: Русские ([url=http://***/forum/profile.php?mode=viewprofile&u=708622]miky_m[/url]; полные, для слабослышащих) русские (Евгений Кудашев), английские (полные, для слабослышащих, на комментарии), французские-Режиссер: Ричард Линклейтер / Richard Linklater
В ролях: Итан Хоук, Жюли Дельпи, Шеймас Дэви-Фицпатрик, Дженнифер Прайор, Шарлотта Прайор, Ксения Калогеропулу, Уолтер Лассали, Ариана Лабед, Яннис Пападопулос-Описание:
Мы встречаем Джесси и Селин еще через 9 лет в Греции. Почти два десятилетия прошло с их первой встречи в поезде, направляющемся в Вену.-Озвучка Михаила Чадова по переводу Евгения Кудашева доступна благодаря будулаюроманову. Работа со звуком — Переводман.
| | Сэмпл-Качество: BDRip 1080p (CRiSC)
Контейнер: MKV
Видео: 1920x1040 (1.85:1), 23.976 fps, 18983 kbps
Аудио 1: Русский AC3 5.1, 48 kHz, 448 kbps — DVO
Аудио 2: Русский DTS 5.1, 48 kHz, 1509 kbps — Чадов
Аудио 3: Английский DTS 5.1, 48 kHz, 1509 kbps
Аудио 4: Английский AAC 2.0, 24 kHz, 81 kbps — Комментарии
Формат субтитров: softsub (SRT)

Скриншоты


MI

nfo

RELEASE:
RELEASE.NAME....: Before.Midnight.2013.1080p.BluRay.DTS.x264-CRiSC.mkv
IMDb............: http://www.imdb.com/title/tt2209418/
RUNTiME.........: 01:48:55
SiZE............: 15.6 GB
ViDEO.CODEC.....: x264
FRAMERATE.......: 23.976
BiTRATE.........: 19000 kbps
RESOLUTiON......: 1920x1040
AUDiO.1.........: English DTS 5.1 1509 kbps
AUDiO.2.........: Commentary English AAC 2.0 81 kbps
CHAPTERS........: Yes
SUBTiTLES.......: English .srt .sup
ENCODER.........: Kuningas
RELEASE.DATE....: 11.10.2013
SOURCE..........: Before Midnight 2013 1080p Blu-ray AVC DTS-HD MA 5.1-LAZERS
x264:
x264 [info]: profile High, level 4.1
x264 [info]: frame I:974 Avg QP:16.28 size:326751
x264 [info]: frame P:31828 Avg QP:17.99 size:169063
x264 [info]: frame B:123870 Avg QP:19.52 size: 79165
x264 [info]: consecutive B-frames: 1.0% 1.6% 3.9% 32.2% 13.3% 23.0% 10.9% 13.6% 0.4%
encoded 156672 frames, 4.30 fps, 18982.68 kb/s
General
Unique ID : 218553765076112268180966282025980266451 (0xA46BEC8F51850D988E69191F613607D3)
Complete name : Before.Midnight.2013.1080p.BluRay.x264.mkv
Format : Matroska
Format version : Version 2
File size : 17.1 GiB
Duration : 1h 48mn
Overall bit rate : 22.5 Mbps
Movie name : Before Midnight (2013) – RuTracker
Encoded date : UTC 2013-11-27 15:50:59
Writing application : mkvmerge v6.1.0 ('Old Devil') built on Mar 2 2013 14:32:37
Writing library : libebml v1.3.0 + libmatroska v1.4.0
Attachment : Yes
Video
ID : 1
Format : AVC
Format/Info : Advanced Video Codec
Format profile : High@L4.1
Format settings, CABAC : Yes
Format settings, ReFrames : 4 frames
Codec ID : V_MPEG4/ISO/AVC
Duration : 1h 48mn
Nominal bit rate : 19.0 Mbps
Width : 1 920 pixels
Height : 1 040 pixels
Display aspect ratio : 1.85:1
Frame rate mode : Constant
Frame rate : 23.976 fps
Color space : YUV
Chroma subsampling : 4:2:0
Bit depth : 8 bits
Scan type : Progressive
Bits/(Pixel*Frame) : 0.397
Title : Before.Midnight.2013.1080p.BluRay.DTS.x264-CRiSC
Writing library : x264 core 138 r2358kMod 9e941d1
Encoding settings : cabac=1 / ref=4 / deblock=1:-3:-3 / analyse=0x3:0x133 / me=umh / subme=11 / psy=1 / fade_compensate=0.00 / psy_rd=0.90:0.10 / mixed_ref=1 / me_range=64 / chroma_me=1 / trellis=2 / 8x8dct=1 / cqm=0 / deadzone=21,11 / fast_pskip=0 / chroma_qp_offset=-3 / threads=12 / lookahead_threads=2 / sliced_threads=0 / nr=0 / decimate=0 / interlaced=0 / bluray_compat=0 / constrained_intra=0 / bframes=8 / b_pyramid=2 / b_adapt=2 / b_bias=0 / direct=3 / weightb=1 / open_gop=0 / weightp=2 / keyint=250 / keyint_min=23 / scenecut=40 / intra_refresh=0 / rc_lookahead=40 / rc=2pass / mbtree=0 / bitrate=19000 / ratetol=1.0 / qcomp=0.70 / qpmin=0 / qpmax=69 / qpstep=4 / cplxblur=20.0 / qblur=0.5 / vbv_maxrate=50000 / vbv_bufsize=62500 / nal_hrd=none / ip_ratio=1.30 / pb_ratio=1.20 / aq=1:0.60
Language : English
Default : Yes
Forced : No
Color primaries : BT.709
Transfer characteristics : BT.709
Matrix coefficients : BT.709
Audio #1
ID : 2
Format : AC-3
Format/Info : Audio Coding 3
Mode extension : CM (complete main)
Format settings, Endianness : Big
Codec ID : A_AC3
Duration : 1h 48mn
Bit rate mode : Constant
Bit rate : 448 Kbps
Channel(s) : 6 channels
Channel positions : Front: L C R, Side: L R, LFE
Sampling rate : 48.0 KHz
Bit depth : 16 bits
Compression mode : Lossy
Stream size : 349 MiB (2%)
Title : DVO – З.Балецкая, Ю.Андреев
Language : Russian
Default : Yes
Forced : No
Audio #2
ID : 3
Format : DTS
Format/Info : Digital Theater Systems
Mode : 16
Format settings, Endianness : Big
Codec ID : A_DTS
Duration : 1h 48mn
Bit rate mode : Constant
Bit rate : 1 509 Kbps
Channel(s) : 6 channels
Channel positions : Front: L C R, Side: L R, LFE
Sampling rate : 48.0 KHz
Bit depth : 24 bits
Compression mode : Lossy
Stream size : 1.15 GiB (7%)
Title : VO – М.Чадов
Language : Russian
Default : No
Forced : No
Audio #3
ID : 4
Format : DTS
Format/Info : Digital Theater Systems
Mode : 16
Format settings, Endianness : Big
Codec ID : A_DTS
Duration : 1h 48mn
Bit rate mode : Constant
Bit rate : 1 509 Kbps
Channel(s) : 6 channels
Channel positions : Front: L C R, Side: L R, LFE
Sampling rate : 48.0 KHz
Bit depth : 24 bits
Compression mode : Lossy
Stream size : 1.15 GiB (7%)
Title : Original
Language : English
Default : No
Forced : No
Audio #4
ID : 5
Format : AAC
Format/Info : Advanced Audio Codec
Format profile : HE-AAC / LC
Codec ID : A_AAC
Duration : 1h 48mn
Channel(s) : 2 channels
Channel positions : Front: L R
Sampling rate : 48.0 KHz / 24.0 KHz
Compression mode : Lossy
Title : Commentary with Richard Linklater, Ethan Hawke and Julie Delpy
Language : English
Default : No
Forced : No
Text #1
ID : 6
Format : UTF-8
Codec ID : S_TEXT/UTF8
Codec ID/Info : UTF-8 Plain Text
Title : Full (miky_m)
Language : Russian
Default : No
Forced : No
Text #2
ID : 7
Format : UTF-8
Codec ID : S_TEXT/UTF8
Codec ID/Info : UTF-8 Plain Text
Title : SDH (miky_m)
Language : Russian
Default : No
Forced : No
Text #3
ID : 8
Format : UTF-8
Codec ID : S_TEXT/UTF8
Codec ID/Info : UTF-8 Plain Text
Title : Full (Е.Кудашев)
Language : Russian
Default : No
Forced : No
Text #4
ID : 9
Format : UTF-8
Codec ID : S_TEXT/UTF8
Codec ID/Info : UTF-8 Plain Text
Title : Full
Language : English
Default : No
Forced : No
Text #5
ID : 10
Format : UTF-8
Codec ID : S_TEXT/UTF8
Codec ID/Info : UTF-8 Plain Text
Title : SDH
Language : English
Default : No
Forced : No
Text #6
ID : 11
Format : UTF-8
Codec ID : S_TEXT/UTF8
Codec ID/Info : UTF-8 Plain Text
Title : Commentary with Richard Linklater, Ethan Hawke and Julie Delpy
Language : English
Default : No
Forced : No
Text #7
ID : 12
Format : UTF-8
Codec ID : S_TEXT/UTF8
Codec ID/Info : UTF-8 Plain Text
Language : French
Default : No
Forced : No
Menu
00:00:00.000 : en:Chapter 01
00:06:20.046 : en:Chapter 02
00:19:32.588 : en:Chapter 03
00:21:44.345 : en:Chapter 04
00:27:28.814 : en:Chapter 05
00:29:36.692 : en:Chapter 06
00:37:08.643 : en:Chapter 07
00:46:51.142 : en:Chapter 08
00:59:11.590 : en:Chapter 09
01:01:09.708 : en:Chapter 10
01:04:42.796 : en:Chapter 11
01:06:13.219 : en:Chapter 12
01:09:44.931 : en:Chapter 13
01:19:05.532 : en:Chapter 14
01:26:59.548 : en:Chapter 15
01:35:58.127 : en:Chapter 16
Скачать

Скачать торрент!

Как скачивать? · Что такое торрент? · Рейтинг и ограничения

Сайт не распространяет и не хранит электронные версии произведений, а лишь предоставляет доступ к создаваемому пользователями каталогу ссылок на торрент-файлы, которые содержат только списки хеш-сумм

[Профиль] [ЛС]
Показать сообщения:    
Ответить на тему

Текущее время: Сегодня 18:11

Часовой пояс: GMT + 4



Вы не можете начинать темы
Вы не можете отвечать на сообщения
Вы не можете редактировать свои сообщения
Вы не можете удалять свои сообщения
Вы не можете голосовать в опросах
Вы не можете прикреплять файлы к сообщениям
Вы не можете скачивать файлы