Вулкан / Volcano (Мик Джексон / Mick Jackson) [1997, США, Боевик, фильм-катастрофа, драма, триллер, BDRip 1080p] Dub + MVO + AVO (Ю. Живов) + Original (Eng) + Subs (Rus, Eng)

Ответить на тему
 
Автор Сообщение

user ®

Стаж: 7 лет 7 месяцев

Сообщений: 20008

Пост Пост: #1 от 28-Ноя-2013 07:55

[Цитировать]

ВулканVolcano«L.A. Erupts in 1997»- Страна: США
Жанр: фантастика, боевик, триллер, драма
Год выпуска: 1997
Продолжительность: 01:43:52-Перевод 1: Профессиональный (дублированный) (Нева 1)
Перевод 2: Профессиональный (многоголосый закадровый)
Перевод 3: Авторский (одноголосый закадровый) Ю. Живов
Cубтитры: русские, английские
Оригинальная аудиодорожка: английский
Режиссер: Мик Джексон / Mick Jackson
В ролях: Томми Ли Джонс, Энн Хеч, Габи Хоффманн, Дон Чидл, Жаклин Ким, Кит Дэвид, Джон Корбетт, Майкл Рисполи, Джон Кэрролл Линч, Марселло Тедфорд, Лори Латем, Берт Крамер-Описание: Лос - Анджелес на своем веку достаточно повидал стихийных бедствий: землетрясений, пожаров, наводнений. Но сейчас «городу ангелов» предстоит столкнуться с самой страшной из когда - либо переживаемых им катастроф, которая грозит стереть его с лица земли.
В одном из самых населенных районов Лос - Анджелеса внезапно пришел в активное действие вулкан. Раскаленная, грозящая смертью лава уже начала выплескиваться на улицы, запруженные автомобилями...
Но, как всегда, герой появляется вовремя - на этот раз в облике мужественного офицера службы спасения в случае стихийных бедствий, который возглавляет борьбу со стихией...-


MPAA: PG-13 - Детям до 13 лет просмотр не желателен-

Доп. Информация

Сценарий: Джером Армстронг / Jerome Armstrong, Билли Рэй / Billy Ray
Продюсер: Эндрю З. Дэвис / Andrew Z. Davis, Нил Х. Мориц / Neal H. Moritz, Стоукли Чаффин / Stokely Chaffin, Марта Р. Коттон / Martha R. Cotton, Майкл Фоттрел / Michael Fottrell
Оператор: Тео ван де Санде / Theo van de Sande
Композитор: Алан Сильвестри / Alan Silvestri
Бюджет: $90 000 000
Сборы в США: $49 323 468
Сборы в мире: $122 823 468
Мировая премьера: 25 апреля 1997
Релиз на DVD: 9 апреля 2009,
«Двадцатый Век Фокс СНГ»
-Качество: BDRip 1080p (Исходник BD Remux 1080p)
Контейнер: MKV
Видео: AVC, 1920x1080 (16:9), 14300 kbps, 23,976 fps, 0,288 bpp
Аудио №1: русский / AC3 / 2.0 / 48 kHz / 192 kbps / 16 bit || Dub
Аудио №2: русский / DTS / 5.1 / 48 kHz / 755 kbps / 16 bit || MVO
Аудио №3: русский / DTS / 5.1 / 48 kHz / 1510 kbps / 16 bit || AVO
Аудио №4: английский / DTS / 5.1 / 48 kHz / 1510 kbps / 16 bit
Формат субтитров: softsub (SRT)
Навигация по главам: есть-

Знаете ли Вы, что...

  • Лава была сделана из метилцеллюлозы - особого реагента, который используется для сгущения молока быстрого приготовления, а падающая с неба зола - из мелких обрывков серой газетной бумаги.
  • Съемки проходили на улицах Лос-Анджелеса, в пустыне Мохава, а также в калифорнийском городке Торранс.
  • Визуальные и компьютерные эффекты в картине применялись в более чем 250 сценах, над которыми работало очень много компаний и художников в области спецэффектов.
  • Почти все сцены на бульваре Уилшер были сняты с помощью декораций в большом павильоне, которые представляли собой точную копию этой улицы чуть меньшего размера и с домами без крыш, которые были «достроены» с помощью компьютерной графики. Взрывы же были настоящие и выполнялись с помощью газа пропана.
  • еще 1 факт

Media Info

Общее
Уникальный идентификатор : 211555342383539574377222051816577954540 (0x9F2813AE5A31C351A549366EA0DFF2EC)
Полное имя : G:\Volcano.1997.BDRip.1080p.mkv
Формат : Matroska
Версия формата : Version 2
Размер файла : 13,2 Гбайт
Продолжительность : 1 ч. 43 м.
Общий поток : 18,3 Мбит/сек
Дата кодирования : UTC 2013-11-26 19:46:22
Программа кодирования : mkvmerge v5.8.0 ('No Sleep / Pillow') built on Sep 2 2012 15:37:04
Библиотека кодирования : libebml v1.2.3 + libmatroska v1.3.0
Видео
Идентификатор : 1
Формат : AVC
Формат/Информация : Advanced Video Codec
Профиль формата : High@L4.1
Параметр CABAC формата : Да
Параметр ReFrames формата : 3 кадра
Идентификатор кодека : V_MPEG4/ISO/AVC
Продолжительность : 1 ч. 43 м.
Битрейт : 14,3 Мбит/сек
Ширина : 1920 пикселей
Высота : 1080 пикселей
Соотношение сторон : 16:9
Режим частоты кадров : Постоянный
Частота кадров : 23,976 кадра/сек
Цветовое пространство : YUV
Субдискретизация насыщенности : 4:2:0
Битовая глубина : 8 бит
Тип развёртки : Прогрессивная
Бит/(Пиксели*Кадры) : 0.288
Размер потока : 10,1 Гбайт (76%)
Библиотека кодирования : x264 core 138 r2358 9e941d1
Настройки программы : cabac=1 / ref=4 / deblock=1:-1:-1 / analyse=0x3:0x113 / me=umh / subme=9 / psy=1 / psy_rd=1.00:0.15 / mixed_ref=1 / me_range=36 / chroma_me=1 / trellis=2 / 8x8dct=1 / cqm=0 / deadzone=21,11 / fast_pskip=0 / chroma_qp_offset=-3 / threads=12 / lookahead_threads=2 / sliced_threads=0 / nr=0 / decimate=0 / interlaced=0 / bluray_compat=0 / constrained_intra=0 / bframes=8 / b_pyramid=1 / b_adapt=2 / b_bias=0 / direct=3 / weightb=1 / open_gop=0 / weightp=2 / keyint=250 / keyint_min=24 / scenecut=40 / intra_refresh=0 / rc_lookahead=40 / rc=2pass / mbtree=1 / bitrate=14300 / ratetol=1.0 / qcomp=0.60 / qpmin=0 / qpmax=69 / qpstep=4 / cplxblur=20.0 / qblur=0.5 / vbv_maxrate=50000 / vbv_bufsize=62500 / nal_hrd=none / ip_ratio=1.40 / aq=2:1.00
Язык : English
Default : Да
Forced : Нет
Аудио #1
Идентификатор : 2
Формат : AC-3
Формат/Информация : Audio Coding 3
Расширение режима : CM (complete main)
Параметр Endianness формата : Big
Идентификатор кодека : A_AC3
Продолжительность : 1 ч. 43 м.
Вид битрейта : Постоянный
Битрейт : 192 Кбит/сек
Каналы : 2 канала
Расположение каналов : Front: L R
Частота : 48,0 КГц
Битовая глубина : 16 бит
Метод сжатия : С потерями
Размер потока : 143 Мбайт (1%)
Заголовок : Дублированный
Язык : Russian
Default : Да
Forced : Нет
Аудио #2
Идентификатор : 3
Формат : DTS
Формат/Информация : Digital Theater Systems
Режим : 16
Параметр Endianness формата : Big
Идентификатор кодека : A_DTS
Продолжительность : 1 ч. 43 м.
Вид битрейта : Постоянный
Битрейт : 755 Кбит/сек
Каналы : 6 каналов
Расположение каналов : Front: L C R, Side: L R, LFE
Частота : 48,0 КГц
Битовая глубина : 16 бит
Метод сжатия : С потерями
Размер потока : 561 Мбайт (4%)
Заголовок : Профессиональный многоголосый
Язык : Russian
Default : Нет
Forced : Нет
Аудио #3
Идентификатор : 4
Формат : DTS
Формат/Информация : Digital Theater Systems
Режим : 16
Параметр Endianness формата : Big
Идентификатор кодека : A_DTS
Продолжительность : 1 ч. 43 м.
Вид битрейта : Постоянный
Битрейт : 1509 Кбит/сек
Каналы : 6 каналов
Расположение каналов : Front: L C R, Side: L R, LFE
Частота : 48,0 КГц
Битовая глубина : 16 бит
Метод сжатия : С потерями
Размер потока : 1,09 Гбайт (8%)
Заголовок : Авторский одноголосый (Ю. Живов)
Язык : Russian
Default : Нет
Forced : Нет
Аудио #4
Идентификатор : 5
Формат : DTS
Формат/Информация : Digital Theater Systems
Режим : 16
Параметр Endianness формата : Big
Идентификатор кодека : A_DTS
Продолжительность : 1 ч. 43 м.
Вид битрейта : Постоянный
Битрейт : 1509 Кбит/сек
Каналы : 6 каналов
Расположение каналов : Front: L C R, Side: L R, LFE
Частота : 48,0 КГц
Битовая глубина : 16 бит
Метод сжатия : С потерями
Размер потока : 1,09 Гбайт (8%)
Заголовок : English
Язык : English
Default : Нет
Forced : Нет
Текст #1
Идентификатор : 6
Формат : UTF-8
Идентификатор кодека : S_TEXT/UTF8
Идентификатор кодека/Информация : UTF-8 Plain Text
Язык : Russian
Default : Нет
Forced : Нет
Текст #2
Идентификатор : 7
Формат : UTF-8
Идентификатор кодека : S_TEXT/UTF8
Идентификатор кодека/Информация : UTF-8 Plain Text
Язык : English
Default : Нет
Forced : Нет
Меню
00:00:00.000 : :Chapter 01
00:11:41.742 : :Chapter 02
00:21:57.358 : :Chapter 03
00:30:05.554 : :Chapter 04
00:42:56.114 : :Chapter 05
00:53:30.748 : :Chapter 06
01:02:27.827 : :Chapter 07
01:10:18.840 : :Chapter 08
01:21:46.819 : :Chapter 09
01:33:04.662 : :Chapter 10

х264

x264 [info]: frame I:942 Avg QP:16.68 size:244982
x264 [info]: frame P:51128 Avg QP:19.23 size:110289
x264 [info]: frame B:97322 Avg QP:20.65 size: 54096
x264 [info]: consecutive B-frames: 7.4% 15.7% 7.9% 65.9% 1.7% 0.7% 0.2% 0.4% 0.3%
x264 [info]: mb I I16..4: 8.2% 75.5% 16.3%
x264 [info]: mb P I16..4: 5.4% 36.5% 2.3% P16..4: 32.9% 13.3% 4.6% 0.0% 0.0% skip: 5.0%
x264 [info]: mb B I16..4: 0.5% 4.6% 0.3% B16..8: 46.8% 12.7% 2.7% direct:14.0% skip:18.5% L0:51.4% L1:39.2% BI: 9.5%
x264 [info]: 8x8 transform intra:83.0% inter:75.1%
x264 [info]: direct mvs spatial:99.2% temporal:0.8%
x264 [info]: coded y,uvDC,uvAC intra: 89.0% 86.1% 59.4% inter: 48.8% 54.8% 13.1%
x264 [info]: i16 v,h,dc,p: 23% 15% 22% 40%
x264 [info]: i8 v,h,dc,ddl,ddr,vr,hd,vl,hu: 12% 8% 24% 8% 9% 9% 9% 10% 10%
x264 [info]: i4 v,h,dc,ddl,ddr,vr,hd,vl,hu: 18% 13% 6% 8% 11% 12% 11% 10% 10%
x264 [info]: i8c dc,h,v,p: 46% 25% 18% 11%
x264 [info]: Weighted P-Frames: Y:3.7% UV:1.8%
x264 [info]: ref P L0: 68.1% 13.7% 15.5% 2.7% 0.0%
x264 [info]: ref B L0: 94.5% 5.5%
x264 [info]: ref B L1: 96.5% 3.5%
x264 [info]: kb/s:14295.67

Скриншоты

Скачать

Скачать торрент!

Как скачивать? · Что такое торрент? · Рейтинг и ограничения

Сайт не распространяет и не хранит электронные версии произведений, а лишь предоставляет доступ к создаваемому пользователями каталогу ссылок на торрент-файлы, которые содержат только списки хеш-сумм

[Профиль] [ЛС]
Показать сообщения:    
Ответить на тему

Текущее время: Сегодня 00:00

Часовой пояс: GMT + 4



Вы не можете начинать темы
Вы не можете отвечать на сообщения
Вы не можете редактировать свои сообщения
Вы не можете удалять свои сообщения
Вы не можете голосовать в опросах
Вы не можете прикреплять файлы к сообщениям
Вы не можете скачивать файлы