Работодатель / The Employer (Фрэнк Мерле / Frank Merle) [2013, США, триллер, DVDRip] MVO

Ответить на тему
 
Автор Сообщение

user ®

Стаж: 7 лет 7 месяцев

Сообщений: 20008

Пост Пост: #1 от 28-Ноя-2013 07:55

[Цитировать]

РаботодательThe Employer«За эту работу вам придётся сражаться насмерть»- Страна: США
Жанр: триллер
Год выпуска: 2013
Продолжительность: 01:29:37-Перевод: Профессиональный (многоголосый, закадровый)
Субтитры: нет
Режиссер: Фрэнк Мерле / Frank Merle
В ролях: Малкольм МакДауэлл, Давид Дастмалчян, Пейдж Ховард, Майкл ДеЛоренцо, Мэттью Уиллиг, Катерина Микайленко, Билли Зейн, Никки Эйкокс, Дэниэл Алдема, Марк Александр Херц, Брайан Ханна, Николас Вукасович-Описание: Пять кандидатов проходили собеседование на работу в большой, успешный конгломерат, чей бизнес окутан тайной. В ночь перед последним этапом собеседования их всех похищают и накачивают наркотиками. На следующий день они просыпаются вместе в запертой комнате, и далее события пойдут совсем не так, как они ожидали...-

-

Доп. Информация

Сценарий: Фрэнк Мерле / Frank Merle
Продюсер: Фрэнк Мерле / Frank Merle, Тьяго Мескита / Tiago Mesquita, Росс Оттерман / Ross Otterman, Дэниэл Алдема / Daniel Aldema, Сэм Ким / Sam Kim
Оператор: Тьяго Мескита / Tiago Mesquita
Композитор: Джонатан М. Хартман / Jonathan M. Hartman
Сборы в России: $35 515
Мировая премьера: 25 апреля 2013
Релиз на DVD: 5 ноября 2013,
«CD Land»
-Качество: DVDRip
Контейнер: AVI
Видео: XviD, 640x352 (16:9), 954 kbps, 23,976 fps, 0,177 bpp
Аудио: MP3 / 2.0 / 48 kHz / 128 kbps /-

Знаете ли Вы, что...

  • Вымышленная корпорация в фильме называется Carcharias, что является научным терминов для некоторых видов акул. На протяжении фильма персонаж Малкольма МакДауэлла говорит о своем восхищении жестокостью акул.

Media Info

General
Complete name : G:\Rabotadatelj.2013.P.DVDRip_700Mb.avi
Format : AVI
Format/Info : Audio Video Interleave
File size : 700 MiB
Duration : 1h 29mn
Overall bit rate : 1 092 Kbps
Writing application : VirtualDubMod 1.5.10.3 | www.virtualdub-fr.org || (build 2550/release)
Writing library : VirtualDubMod build 2550/release
Video
ID : 0
Format : MPEG-4 Visual
Format profile : Advanced Simple@L5
Format settings, BVOP : 2
Format settings, QPel : No
Format settings, GMC : No warppoints
Format settings, Matrix : Default (MPEG)
Codec ID : XVID
Codec ID/Hint : XviD
Duration : 1h 29mn
Bit rate : 955 Kbps
Width : 640 pixels
Height : 352 pixels
Display aspect ratio : 16:9
Frame rate : 23.976 fps
Color space : YUV
Chroma subsampling : 4:2:0
Bit depth : 8 bits
Scan type : Progressive
Compression mode : Lossy
Bits/(Pixel*Frame) : 0.177
Stream size : 612 MiB (87%)
Writing library : XviD 1.2.1 (UTC 2008-12-04)
Audio
ID : 1
Format : MPEG Audio
Format version : Version 1
Format profile : Layer 3
Codec ID : 55
Codec ID/Hint : MP3
Duration : 1h 29mn
Bit rate mode : Constant
Bit rate : 128 Kbps
Channel(s) : 2 channels
Sampling rate : 48.0 KHz
Compression mode : Lossy
Stream size : 82.0 MiB (12%)
Alignment : Aligned on interleaves
Interleave, duration : 42 ms (1.00 video frame)
Interleave, preload duration : 504 ms
Writing library : LAME3.98r
Encoding settings : -m s -V 4 -q 2 -lowpass 17 -b 128

Скриншот с названием фильма

Скриншоты

Скачать

Скачать торрент!

Как скачивать? · Что такое торрент? · Рейтинг и ограничения

Сайт не распространяет и не хранит электронные версии произведений, а лишь предоставляет доступ к создаваемому пользователями каталогу ссылок на торрент-файлы, которые содержат только списки хеш-сумм

[Профиль] [ЛС]
Показать сообщения:    
Ответить на тему

Текущее время: Сегодня 09:53

Часовой пояс: GMT + 4



Вы не можете начинать темы
Вы не можете отвечать на сообщения
Вы не можете редактировать свои сообщения
Вы не можете удалять свои сообщения
Вы не можете голосовать в опросах
Вы не можете прикреплять файлы к сообщениям
Вы не можете скачивать файлы